  0
SECTION
  2
HEADER
  9
$ACADVER
  1
AC1018
  9
$ACADMAINTVER
 70
   104
  9
$DWGCODEPAGE
  3
ANSI_932
  9
$LASTSAVEDBY
  1
shirase
  9
$INSBASE
 10
0.0
 20
0.0
 30
0.0
  9
$EXTMIN
 10
5438.602434753738
 20
1934.699978837936
 30
0.0
  9
$EXTMAX
 10
7391.102434753739
 20
3357.414778269435
 30
0.0
  9
$LIMMIN
 10
0.0
 20
0.0
  9
$LIMMAX
 10
12.0
 20
9.0
  9
$ORTHOMODE
 70
     0
  9
$REGENMODE
 70
     1
  9
$FILLMODE
 70
     1
  9
$QTEXTMODE
 70
     0
  9
$MIRRTEXT
 70
     0
  9
$LTSCALE
 40
1.0
  9
$ATTMODE
 70
     1
  9
$TEXTSIZE
 40
45.0
  9
$TRACEWID
 40
0.05
  9
$TEXTSTYLE
  7
MSPゴシック
  9
$CLAYER
  8
外形線
  9
$CELTYPE
  6
ByLayer
  9
$CECOLOR
 62
   256
  9
$CELTSCALE
 40
1.0
  9
$DISPSILH
 70
     0
  9
$DIMSCALE
 40
5.0
  9
$DIMASZ
 40
1.0
  9
$DIMEXO
 40
0.2
  9
$DIMDLI
 40
5.0
  9
$DIMRND
 40
0.0
  9
$DIMDLE
 40
0.0
  9
$DIMEXE
 40
0.1
  9
$DIMTP
 40
0.0
  9
$DIMTM
 40
0.0
  9
$DIMTXT
 40
1.0
  9
$DIMCEN
 40
2.5
  9
$DIMTSZ
 40
0.0
  9
$DIMTOL
 70
     0
  9
$DIMLIM
 70
     0
  9
$DIMTIH
 70
     0
  9
$DIMTOH
 70
     0
  9
$DIMSE1
 70
     0
  9
$DIMSE2
 70
     0
  9
$DIMTAD
 70
     1
  9
$DIMZIN
 70
     8
  9
$DIMBLK
  1
Open
  9
$DIMASO
 70
     1
  9
$DIMSHO
 70
     1
  9
$DIMPOST
  1

  9
$DIMAPOST
  1

  9
$DIMALT
 70
     0
  9
$DIMALTD
 70
     4
  9
$DIMALTF
 40
0.0394
  9
$DIMLFAC
 40
1.0
  9
$DIMTOFL
 70
     1
  9
$DIMTVP
 40
0.0
  9
$DIMTIX
 70
     1
  9
$DIMSOXD
 70
     0
  9
$DIMSAH
 70
     0
  9
$DIMBLK1
  1

  9
$DIMBLK2
  1

  9
$DIMSTYLE
  2
nakazato
  9
$DIMCLRD
 70
     1
  9
$DIMCLRE
 70
     1
  9
$DIMCLRT
 70
     6
  9
$DIMTFAC
 40
1.0
  9
$DIMGAP
 40
0.1
  9
$DIMJUST
 70
     0
  9
$DIMSD1
 70
     0
  9
$DIMSD2
 70
     0
  9
$DIMTOLJ
 70
     1
  9
$DIMTZIN
 70
     8
  9
$DIMALTZ
 70
     0
  9
$DIMALTTZ
 70
     0
  9
$DIMUPT
 70
     0
  9
$DIMDEC
 70
     1
  9
$DIMTDEC
 70
     1
  9
$DIMALTU
 70
     8
  9
$DIMALTTD
 70
     4
  9
$DIMTXSTY
  7
MSPゴシック
  9
$DIMAUNIT
 70
     0
  9
$DIMADEC
 70
     1
  9
$DIMALTRND
 40
0.0
  9
$DIMAZIN
 70
     0
  9
$DIMDSEP
 70
    46
  9
$DIMATFIT
 70
     3
  9
$DIMFRAC
 70
     0
  9
$DIMLDRBLK
  1

  9
$DIMLUNIT
 70
     2
  9
$DIMLWD
 70
     5
  9
$DIMLWE
 70
     5
  9
$DIMTMOVE
 70
     0
  9
$LUNITS
 70
     2
  9
$LUPREC
 70
     4
  9
$SKETCHINC
 40
0.1
  9
$FILLETRAD
 40
5.0
  9
$AUNITS
 70
     0
  9
$AUPREC
 70
     0
  9
$MENU
  1
.
  9
$ELEVATION
 40
0.0
  9
$PELEVATION
 40
0.0
  9
$THICKNESS
 40
0.0
  9
$LIMCHECK
 70
     0
  9
$CHAMFERA
 40
0.0
  9
$CHAMFERB
 40
0.0
  9
$CHAMFERC
 40
0.0
  9
$CHAMFERD
 40
0.0
  9
$SKPOLY
 70
     0
  9
$TDCREATE
 40
2456528.534724746
  9
$TDUCREATE
 40
2456528.159724745
  9
$TDUPDATE
 40
2456582.872703577
  9
$TDUUPDATE
 40
2456582.497703577
  9
$TDINDWG
 40
0.3803471875
  9
$TDUSRTIMER
 40
0.3803469676
  9
$USRTIMER
 70
     1
  9
$ANGBASE
 50
0.0
  9
$ANGDIR
 70
     0
  9
$PDMODE
 70
     0
  9
$PDSIZE
 40
0.0
  9
$PLINEWID
 40
0.0
  9
$SPLFRAME
 70
     0
  9
$SPLINETYPE
 70
     6
  9
$SPLINESEGS
 70
     8
  9
$HANDSEED
  5
24B3
  9
$SURFTAB1
 70
     6
  9
$SURFTAB2
 70
     6
  9
$SURFTYPE
 70
     6
  9
$SURFU
 70
     6
  9
$SURFV
 70
     6
  9
$UCSBASE
  2

  9
$UCSNAME
  2

  9
$UCSORG
 10
0.0
 20
0.0
 30
0.0
  9
$UCSXDIR
 10
1.0
 20
0.0
 30
0.0
  9
$UCSYDIR
 10
0.0
 20
1.0
 30
0.0
  9
$UCSORTHOREF
  2

  9
$UCSORTHOVIEW
 70
     0
  9
$UCSORGTOP
 10
0.0
 20
0.0
 30
0.0
  9
$UCSORGBOTTOM
 10
0.0
 20
0.0
 30
0.0
  9
$UCSORGLEFT
 10
0.0
 20
0.0
 30
0.0
  9
$UCSORGRIGHT
 10
0.0
 20
0.0
 30
0.0
  9
$UCSORGFRONT
 10
0.0
 20
0.0
 30
0.0
  9
$UCSORGBACK
 10
0.0
 20
0.0
 30
0.0
  9
$PUCSBASE
  2

  9
$PUCSNAME
  2

  9
$PUCSORG
 10
0.0
 20
0.0
 30
0.0
  9
$PUCSXDIR
 10
1.0
 20
0.0
 30
0.0
  9
$PUCSYDIR
 10
0.0
 20
1.0
 30
0.0
  9
$PUCSORTHOREF
  2

  9
$PUCSORTHOVIEW
 70
     0
  9
$PUCSORGTOP
 10
0.0
 20
0.0
 30
0.0
  9
$PUCSORGBOTTOM
 10
0.0
 20
0.0
 30
0.0
  9
$PUCSORGLEFT
 10
0.0
 20
0.0
 30
0.0
  9
$PUCSORGRIGHT
 10
0.0
 20
0.0
 30
0.0
  9
$PUCSORGFRONT
 10
0.0
 20
0.0
 30
0.0
  9
$PUCSORGBACK
 10
0.0
 20
0.0
 30
0.0
  9
$USERI1
 70
     0
  9
$USERI2
 70
     0
  9
$USERI3
 70
     0
  9
$USERI4
 70
     0
  9
$USERI5
 70
     0
  9
$USERR1
 40
0.0
  9
$USERR2
 40
0.0
  9
$USERR3
 40
0.0
  9
$USERR4
 40
0.0
  9
$USERR5
 40
0.0
  9
$WORLDVIEW
 70
     1
  9
$SHADEDGE
 70
     3
  9
$SHADEDIF
 70
    70
  9
$TILEMODE
 70
     1
  9
$MAXACTVP
 70
    64
  9
$PINSBASE
 10
0.0
 20
0.0
 30
0.0
  9
$PLIMCHECK
 70
     0
  9
$PEXTMIN
 10
2.17667693947169
 20
3.087404830212562
 30
0.0
  9
$PEXTMAX
 10
409.3723019265421
 20
286.8776718335985
 30
0.0
  9
$PLIMMIN
 10
-3.757083177566528
 20
-3.757080078125
  9
$PLIMMAX
 10
416.2601592540741
 20
293.2112426757813
  9
$UNITMODE
 70
     0
  9
$VISRETAIN
 70
     1
  9
$PLINEGEN
 70
     0
  9
$PSLTSCALE
 70
     1
  9
$TREEDEPTH
 70
  3020
  9
$CMLSTYLE
  2
Standard
  9
$CMLJUST
 70
     0
  9
$CMLSCALE
 40
1.0
  9
$PROXYGRAPHICS
 70
     1
  9
$MEASUREMENT
 70
     0
  9
$CELWEIGHT
370
    -1
  9
$ENDCAPS
280
     0
  9
$JOINSTYLE
280
     0
  9
$LWDISPLAY
290
     0
  9
$INSUNITS
 70
     1
  9
$HYPERLINKBASE
  1

  9
$STYLESHEET
  1

  9
$XEDIT
290
     1
  9
$CEPSNTYPE
380
     0
  9
$PSTYLEMODE
290
     0
  9
$FINGERPRINTGUID
  2
{E62712A6-5322-4C11-8384-4E9E4D818AC3}
  9
$VERSIONGUID
  2
{F713B610-3D8E-4B24-A25D-ABB1C3A26410}
  9
$EXTNAMES
290
     1
  9
$PSVPSCALE
 40
0.0
  9
$OLESTARTUP
290
     0
  9
$SORTENTS
280
   127
  9
$INDEXCTL
280
     0
  9
$HIDETEXT
280
     1
  9
$XCLIPFRAME
290
     0
  9
$HALOGAP
280
     0
  9
$OBSCOLOR
 70
   257
  9
$OBSLTYPE
280
     0
  9
$INTERSECTIONDISPLAY
280
     0
  9
$INTERSECTIONCOLOR
 70
   257
  9
$DIMASSOC
280
     2
  9
$PROJECTNAME
  1

  0
ENDSEC
  0
SECTION
  2
CLASSES
  0
CLASS
  1
ACDBDICTIONARYWDFLT
  2
AcDbDictionaryWithDefault
  3
ObjectDBX Classes
 90
        0
 91
        1
280
     0
281
     0
  0
CLASS
  1
DICTIONARYVAR
  2
AcDbDictionaryVar
  3
ObjectDBX Classes
 90
        0
 91
       13
280
     0
281
     0
  0
CLASS
  1
MATERIAL
  2
AcDbMaterial
  3
ObjectDBX Classes
 90
     1153
 91
        3
280
     0
281
     0
  0
CLASS
  1
VISUALSTYLE
  2
AcDbVisualStyle
  3
ObjectDBX Classes
 90
     4095
 91
       24
280
     0
281
     0
  0
CLASS
  1
TABLESTYLE
  2
AcDbTableStyle
  3
ObjectDBX Classes
 90
     4095
 91
        1
280
     0
281
     0
  0
CLASS
  1
SCALE
  2
AcDbScale
  3
ObjectDBX Classes
 90
     1153
 91
       33
280
     0
281
     0
  0
CLASS
  1
MLEADERSTYLE
  2
AcDbMLeaderStyle
  3
ACDB_MLEADERSTYLE_CLASS
 90
     4095
 91
        1
280
     0
281
     0
  0
CLASS
  1
CELLSTYLEMAP
  2
AcDbCellStyleMap
  3
ObjectDBX Classes
 90
     1152
 91
        1
280
     0
281
     0
  0
CLASS
  1
EXACXREFPANELOBJECT
  2
ExAcXREFPanelObject
  3
EXAC_ESW
 90
     1025
 91
        1
280
     0
281
     0
  0
CLASS
  1
NPOCOLLECTION
  2
AcDbImpNonPersistentObjectsCollection
  3
ObjectDBX Classes
 90
     1153
 91
        1
280
     0
281
     0
  0
CLASS
  1
LAYER_INDEX
  2
AcDbLayerIndex
  3
ObjectDBX Classes
 90
        0
 91
        0
280
     0
281
     0
  0
CLASS
  1
SPATIAL_INDEX
  2
AcDbSpatialIndex
  3
ObjectDBX Classes
 90
        0
 91
        0
280
     0
281
     0
  0
CLASS
  1
IDBUFFER
  2
AcDbIdBuffer
  3
ObjectDBX Classes
 90
        0
 91
        0
280
     0
281
     0
  0
CLASS
  1
ACDBSECTIONVIEWSTYLE
  2
AcDbSectionViewStyle
  3
ObjectDBX Classes
 90
     1025
 91
        2
280
     0
281
     0
  0
CLASS
  1
ACDBDETAILVIEWSTYLE
  2
AcDbDetailViewStyle
  3
ObjectDBX Classes
 90
     1025
 91
        2
280
     0
281
     0
  0
CLASS
  1
DIMASSOC
  2
AcDbDimAssoc
  3
"AcDbDimAssoc|Product Desc:     AcDim ARX App For Dimension|Company:          Autodesk, Inc.|WEB Address:      www.autodesk.com"
 90
        0
 91
        0
280
     0
281
     0
  0
CLASS
  1
SORTENTSTABLE
  2
AcDbSortentsTable
  3
ObjectDBX Classes
 90
        0
 91
        2
280
     0
281
     0
  0
CLASS
  1
PLOTSETTINGS
  2
AcDbPlotSettings
  3
ObjectDBX Classes
 90
        0
 91
        1
280
     0
281
     0
  0
CLASS
  1
MULTILEADER
  2
AcDbMLeader
  3
ACDB_MLEADER_CLASS
 90
     1025
 91
        0
280
     0
281
     1
  0
CLASS
  1
ACDBASSOC2DCONSTRAINTGROUP
  2
AcDbAssoc2dConstraintGroup
  3
ObjectDBX Classes
 90
     1025
 91
        0
280
     0
281
     0
  0
CLASS
  1
ACDBASSOCGEOMDEPENDENCY
  2
AcDbAssocGeomDependency
  3
ObjectDBX Classes
 90
     1025
 91
        0
280
     0
281
     0
  0
CLASS
  1
ACDBASSOCNETWORK
  2
AcDbAssocNetwork
  3
ObjectDBX Classes
 90
     1025
 91
        0
280
     0
281
     0
  0
ENDSEC
  0
SECTION
  2
TABLES
  0
TABLE
  2
VPORT
  5
8
330
0
100
AcDbSymbolTable
 70
     1
  0
VPORT
  5
90
330
8
100
AcDbSymbolTableRecord
100
AcDbViewportTableRecord
  2
*Active
 70
     0
 10
0.0
 20
0.0
 11
1.0
 21
1.0
 12
6393.678291230203
 22
2684.963108588596
 13
0.0
 23
0.0
 14
0.5
 24
0.5
 15
0.5
 25
0.5
 16
0.0
 26
0.0
 36
1.0
 17
0.0
 27
0.0
 37
0.0
 40
1520.127761353067
 41
1.706937799043062
 42
50.0
 43
0.0
 44
0.0
 50
0.0
 51
0.0
 71
     0
 72
  1000
 73
     1
 74
     3
 75
     0
 76
     0
 77
     0
 78
     0
281
     0
 65
     1
110
0.0
120
0.0
130
0.0
111
1.0
121
0.0
131
0.0
112
0.0
122
1.0
132
0.0
 79
     0
146
0.0
1001
ACAD_NAV_VCDISPLAY
1070
     3
  0
ENDTAB
  0
TABLE
  2
LTYPE
  5
5
330
0
100
AcDbSymbolTable
 70
    10
  0
LTYPE
  5
14
330
5
100
AcDbSymbolTableRecord
100
AcDbLinetypeTableRecord
  2
ByBlock
 70
     0
  3

 72
    65
 73
     0
 40
0.0
  0
LTYPE
  5
15
330
5
100
AcDbSymbolTableRecord
100
AcDbLinetypeTableRecord
  2
ByLayer
 70
     0
  3

 72
    65
 73
     0
 40
0.0
  0
LTYPE
  5
16
330
5
100
AcDbSymbolTableRecord
100
AcDbLinetypeTableRecord
  2
Continuous
 70
     0
  3
Solid line
 72
    65
 73
     0
 40
0.0
  0
LTYPE
  5
307
330
5
100
AcDbSymbolTableRecord
100
AcDbLinetypeTableRecord
  2
HIDDEN
 70
     0
  3
Hidden __ __ __ __ __ __ __ __ __ __ __ __ __ _
 72
    65
 73
     2
 40
0.375
 49
0.25
 74
     0
 49
-0.125
 74
     0
  0
LTYPE
  5
D8D
330
5
100
AcDbSymbolTableRecord
100
AcDbLinetypeTableRecord
  2
CENTER
 70
     0
  3
Center ____ _ ____ _ ____ _ ____ _ ____ _ ____
 72
    65
 73
     4
 40
2.0
 49
1.25
 74
     0
 49
-0.25
 74
     0
 49
0.25
 74
     0
 49
-0.25
 74
     0
  0
LTYPE
  5
1895
330
5
100
AcDbSymbolTableRecord
100
AcDbLinetypeTableRecord
  2
HIDDEN2
 70
     0
  3
Hidden (.5x) _ _ _ _ _ _ _ _ _ _ _ _ _ _ _ _ _
 72
    65
 73
     2
 40
4.762499999999998
 49
3.174999999999998
 74
     0
 49
-1.587499999999999
 74
     0
  0
LTYPE
  5
1896
330
5
100
AcDbSymbolTableRecord
100
AcDbLinetypeTableRecord
  2
DASHDOT2
 70
     0
  3
Dash dot (.5x) _._._._._._._._._._._._._._._.
 72
    65
 73
     4
 40
12.7
 49
6.349999999999998
 74
     4
 75
     0
340
0
 46
0.0
 50
0.0
 44
0.0
 45
0.0
 49
-3.174999999999998
 74
     4
 75
     0
340
0
 46
0.0
 50
0.0
 44
0.0
 45
0.0
 49
0.0
 74
     4
 75
     0
340
0
 46
0.0
 50
0.0
 44
0.0
 45
0.0
 49
-3.174999999999998
 74
     4
 75
     0
340
0
 46
0.0
 50
0.0
 44
0.0
 45
0.0
  0
ENDTAB
  0
TABLE
  2
LAYER
  5
2
102
{ACAD_XDICTIONARY
360
18B
102
}
330
0
100
AcDbSymbolTable
 70
    13
  0
LAYER
  5
10
102
{ACAD_XDICTIONARY
360
E1
102
}
330
2
100
AcDbSymbolTableRecord
100
AcDbLayerTableRecord
  2
0
 70
     0
 62
     7
  6
Continuous
290
     0
370
    -3
390
318
  0
LAYER
  5
308
330
2
100
AcDbSymbolTableRecord
100
AcDbLayerTableRecord
  2
外形線
 70
     0
 62
     7
  6
Continuous
370
    30
390
1703
  0
LAYER
  5
309
102
{ACAD_XDICTIONARY
360
30A
102
}
330
2
100
AcDbSymbolTableRecord
100
AcDbLayerTableRecord
  2
寸法線
 70
     0
 62
     1
  6
Continuous
370
     5
390
1703
1001
AcAecLayerStandard
1000

1000

1001
AcCmTransparency
1071
        0
  0
LAYER
  5
30B
102
{ACAD_XDICTIONARY
360
30C
102
}
330
2
100
AcDbSymbolTableRecord
100
AcDbLayerTableRecord
  2
隠れ線
 70
     0
 62
     3
  6
HIDDEN
370
     5
390
1703
1001
AcAecLayerStandard
1000

1000

1001
AcCmTransparency
1071
        0
  0
LAYER
  5
30E
330
2
100
AcDbSymbolTableRecord
100
AcDbLayerTableRecord
  2
Defpoints
 70
     0
 62
     7
  6
Continuous
290
     0
370
    -3
390
318
  0
LAYER
  5
5B4
330
2
100
AcDbSymbolTableRecord
100
AcDbLayerTableRecord
  2
細線
 70
     0
 62
    61
  6
Continuous
370
     5
390
1703
1001
AcAecLayerStandard
1000

1000

1001
AcCmTransparency
1071
        0
  0
LAYER
  5
5B5
330
2
100
AcDbSymbolTableRecord
100
AcDbLayerTableRecord
  2
図枠
 70
     0
 62
     5
  6
Continuous
370
    30
390
1703
1001
AcAecLayerStandard
1000

1000

1001
AcCmTransparency
1071
        0
  0
LAYER
  5
5B6
330
2
100
AcDbSymbolTableRecord
100
AcDbLayerTableRecord
  2
vport
 70
     0
 62
    11
  6
Continuous
290
     0
370
    -3
390
318
1001
AcAecLayerStandard
1000

1000

1001
AcCmTransparency
1071
        0
  0
LAYER
  5
5C7
330
2
100
AcDbSymbolTableRecord
100
AcDbLayerTableRecord
  2
文字
 70
     0
 62
     9
  6
Continuous
370
     5
390
1703
  0
LAYER
  5
D8A
330
2
100
AcDbSymbolTableRecord
100
AcDbLayerTableRecord
  2
中心線
 70
     0
 62
     4
  6
CENTER
370
     5
390
1703
1001
AcAecLayerStandard
1000

1000

1001
AcCmTransparency
1071
        0
  0
ENDTAB
  0
TABLE
  2
STYLE
  5
3
330
0
100
AcDbSymbolTable
 70
     7
  0
STYLE
  5
11
330
3
100
AcDbSymbolTableRecord
100
AcDbTextStyleTableRecord
  2
Standard
 70
     0
 40
0.0
 41
1.0
 50
0.0
 71
     0
 42
0.2
  3
arial.ttf
  4

1001
ACAD
1000
Arial
1071
       34
  0
STYLE
  5
30F
330
3
100
AcDbSymbolTableRecord
100
AcDbTextStyleTableRecord
  2
寸法用
 70
     0
 40
0.0
 41
0.75
 50
0.0
 71
     0
 42
2.5
  3
simplex.shx
  4
bigfont.shx
  0
STYLE
  5
310
330
3
100
AcDbSymbolTableRecord
100
AcDbTextStyleTableRecord
  2
MSPゴシック
 70
     0
 40
0.0
 41
1.0
 50
0.0
 71
     0
 42
45.0
  3

  4

1001
ACAD
1000
MS PGothic
1071
    32818
  0
ENDTAB
  0
TABLE
  2
VIEW
  5
6
330
0
100
AcDbSymbolTable
 70
     0
  0
ENDTAB
  0
TABLE
  2
UCS
  5
7
330
0
100
AcDbSymbolTable
 70
     0
  0
ENDTAB
  0
TABLE
  2
APPID
  5
9
330
0
100
AcDbSymbolTable
 70
    12
  0
APPID
  5
12
330
9
100
AcDbSymbolTableRecord
100
AcDbRegAppTableRecord
  2
ACAD
 70
     0
  0
APPID
  5
D8
330
9
100
AcDbSymbolTableRecord
100
AcDbRegAppTableRecord
  2
AcadAnnoPO
 70
     0
  0
APPID
  5
D9
330
9
100
AcDbSymbolTableRecord
100
AcDbRegAppTableRecord
  2
AcadAnnotative
 70
     0
  0
APPID
  5
DA
330
9
100
AcDbSymbolTableRecord
100
AcDbRegAppTableRecord
  2
ACAD_DSTYLE_DIMJAG
 70
     0
  0
APPID
  5
DB
330
9
100
AcDbSymbolTableRecord
100
AcDbRegAppTableRecord
  2
ACAD_DSTYLE_DIMTALN
 70
     0
  0
APPID
  5
102
330
9
100
AcDbSymbolTableRecord
100
AcDbRegAppTableRecord
  2
ACAD_MLEADERVER
 70
     0
  0
APPID
  5
1A3
330
9
100
AcDbSymbolTableRecord
100
AcDbRegAppTableRecord
  2
ACAD_NAV_VCDISPLAY
 70
     0
  0
APPID
  5
314
330
9
100
AcDbSymbolTableRecord
100
AcDbRegAppTableRecord
  2
ACAD_PSEXT
 70
     0
  0
APPID
  5
315
330
9
100
AcDbSymbolTableRecord
100
AcDbRegAppTableRecord
  2
AcAecLayerStandard
 70
     0
  0
APPID
  5
316
330
9
100
AcDbSymbolTableRecord
100
AcDbRegAppTableRecord
  2
AcCmTransparency
 70
     0
  0
APPID
  5
317
330
9
100
AcDbSymbolTableRecord
100
AcDbRegAppTableRecord
  2
ACAD_DSTYLE_DIMBREAK
 70
     0
  0
APPID
  5
81B
330
9
100
AcDbSymbolTableRecord
100
AcDbRegAppTableRecord
  2
ACAD_EXEMPT_FROM_CAD_STANDARDS
 70
     0
  0
ENDTAB
  0
TABLE
  2
DIMSTYLE
  5
A
330
0
100
AcDbSymbolTable
 70
     5
100
AcDbDimStyleTable
 71
     2
340
312
340
27
  0
DIMSTYLE
105
27
330
A
100
AcDbSymbolTableRecord
100
AcDbDimStyleTableRecord
  2
Standard
 70
     0
340
11
  0
DIMSTYLE
105
312
330
A
100
AcDbSymbolTableRecord
100
AcDbDimStyleTableRecord
  2
nakazato
 70
     0
 40
5.0
 41
1.0
 42
0.2
 43
5.0
 44
0.1
 73
     0
 74
     0
 77
     1
 78
     8
140
1.0
141
2.5
143
0.0394
147
0.1
171
     4
172
     1
174
     1
176
     1
177
     1
178
     6
179
     1
271
     1
272
     1
273
     8
274
     4
284
     8
340
310
342
1CF
371
     5
372
     5
1001
ACAD_DSTYLE_DIMBREAK
1070
   391
1040
0.125
1001
ACAD_DSTYLE_DIMJAG
1070
   388
1040
1.5
1001
ACAD_DSTYLE_DIMTALN
1070
   392
1070
     0
  0
DIMSTYLE
105
189A
102
{ACAD_REACTORS
330
1C6A
330
1C6D
330
1C6E
330
1C6F
330
1C70
330
1C71
330
1C72
330
1C73
330
1C74
330
1C75
330
1C76
330
1C77
330
1AE5
330
1AE6
102
}
330
A
100
AcDbSymbolTableRecord
100
AcDbDimStyleTableRecord
  2
uchida
 70
     0
 40
5.0
 41
1.0
 42
0.3
 43
5.0
 44
0.3
 73
     0
 74
     0
 77
     3
 78
     8
140
1.0
141
2.5
143
0.0394
147
0.25
171
     4
172
     1
174
     1
176
     1
177
     1
178
     6
271
     2
272
     2
273
     8
274
     4
279
     1
284
     8
340
310
342
1CF
371
     5
372
     5
1001
ACAD_DSTYLE_DIMJAG
1070
   388
1040
1.5
1001
ACAD_DSTYLE_DIMTALN
1070
   392
1070
     0
  0
ENDTAB
  0
TABLE
  2
BLOCK_RECORD
  5
1
330
0
100
AcDbSymbolTable
 70
    38
  0
BLOCK_RECORD
  5
1F
102
{ACAD_XDICTIONARY
360
15A
102
}
330
1
100
AcDbSymbolTableRecord
100
AcDbBlockTableRecord
  2
*Model_Space
340
22
  0
BLOCK_RECORD
  5
73
330
1
100
AcDbSymbolTableRecord
100
AcDbBlockTableRecord
  2
*Paper_Space
340
74
  0
BLOCK_RECORD
  5
1CF
330
1
100
AcDbSymbolTableRecord
100
AcDbBlockTableRecord
  2
_Open
340
0
102
{BLKREFS
331
17ED
331
17EE
331
17F9
331
17FA
331
1805
331
1806
331
1811
331
1812
331
181D
331
181E
331
1829
331
182A
331
1835
331
1836
331
1841
331
1842
331
184D
331
184E
331
1859
331
185A
331
186A
331
186B
331
1875
331
1876
331
1881
331
1882
331
188D
331
188E
331
222F
331
2230
331
2238
331
2239
331
224A
331
224B
331
2253
331
2254
331
225C
331
225D
331
2265
331
2266
331
226E
331
226F
331
2277
331
2278
331
2280
331
2281
331
2289
331
228A
331
2292
331
2293
331
229B
331
229C
331
22A7
331
22A8
331
2306
331
2307
102
}
  0
BLOCK_RECORD
  5
1CA8
330
1
100
AcDbSymbolTableRecord
100
AcDbBlockTableRecord
  2
*D23
340
0
  0
BLOCK_RECORD
  5
1CB4
330
1
100
AcDbSymbolTableRecord
100
AcDbBlockTableRecord
  2
*D24
340
0
  0
BLOCK_RECORD
  5
1CC0
330
1
100
AcDbSymbolTableRecord
100
AcDbBlockTableRecord
  2
*D25
340
0
  0
BLOCK_RECORD
  5
1CCC
330
1
100
AcDbSymbolTableRecord
100
AcDbBlockTableRecord
  2
*D26
340
0
  0
BLOCK_RECORD
  5
1CD8
330
1
100
AcDbSymbolTableRecord
100
AcDbBlockTableRecord
  2
*D27
340
0
  0
BLOCK_RECORD
  5
1CE4
330
1
100
AcDbSymbolTableRecord
100
AcDbBlockTableRecord
  2
*D28
340
0
  0
BLOCK_RECORD
  5
1CF0
330
1
100
AcDbSymbolTableRecord
100
AcDbBlockTableRecord
  2
*D29
340
0
  0
BLOCK_RECORD
  5
1CFC
330
1
100
AcDbSymbolTableRecord
100
AcDbBlockTableRecord
  2
*D30
340
0
  0
BLOCK_RECORD
  5
1D08
330
1
100
AcDbSymbolTableRecord
100
AcDbBlockTableRecord
  2
*D31
340
0
  0
BLOCK_RECORD
  5
1D14
330
1
100
AcDbSymbolTableRecord
100
AcDbBlockTableRecord
  2
*D32
340
0
  0
BLOCK_RECORD
  5
1D20
330
1
100
AcDbSymbolTableRecord
100
AcDbBlockTableRecord
  2
*D33
340
0
  0
BLOCK_RECORD
  5
1D30
330
1
100
AcDbSymbolTableRecord
100
AcDbBlockTableRecord
  2
*D34
340
0
  0
BLOCK_RECORD
  5
1D3C
330
1
100
AcDbSymbolTableRecord
100
AcDbBlockTableRecord
  2
*D35
340
0
  0
BLOCK_RECORD
  5
1D4C
330
1
100
AcDbSymbolTableRecord
100
AcDbBlockTableRecord
  2
*D36
340
0
  0
ENDTAB
  0
ENDSEC
  0
SECTION
  2
BLOCKS
  0
BLOCK
  5
20
330
1F
100
AcDbEntity
  8
0
100
AcDbBlockBegin
  2
*Model_Space
 70
     0
 10
0.0
 20
0.0
 30
0.0
  3
*Model_Space
  1

  0
ENDBLK
  5
21
330
1F
100
AcDbEntity
  8
0
100
AcDbBlockEnd
  0
BLOCK
  5
75
330
73
100
AcDbEntity
 67
     1
  8
0
100
AcDbBlockBegin
  2
*Paper_Space
 70
     0
 10
0.0
 20
0.0
 30
0.0
  3
*Paper_Space
  1

  0
ENDBLK
  5
76
330
73
100
AcDbEntity
 67
     1
  8
0
100
AcDbBlockEnd
  0
BLOCK
  5
1D0
330
1CF
100
AcDbEntity
  8
0
100
AcDbBlockBegin
  2
_Open
 70
     0
 10
0.0
 20
0.0
 30
0.0
  3
_Open
  1

  0
LINE
  5
1D1
330
1CF
100
AcDbEntity
  8
0
  6
ByBlock
 62
     0
370
    -2
100
AcDbLine
 10
-1.0
 20
0.1666666666666666
 30
0.0
 11
0.0
 21
0.0
 31
0.0
  0
LINE
  5
1D2
330
1CF
100
AcDbEntity
  8
0
  6
ByBlock
 62
     0
370
    -2
100
AcDbLine
 10
-1.0
 20
-0.1666666666666666
 30
0.0
 11
0.0
 21
0.0
 31
0.0
  0
LINE
  5
1D3
330
1CF
100
AcDbEntity
  8
0
  6
ByBlock
 62
     0
370
    -2
100
AcDbLine
 10
0.0
 20
0.0
 30
0.0
 11
-1.0
 21
0.0
 31
0.0
  0
ENDBLK
  5
1D4
330
1CF
100
AcDbEntity
  8
0
100
AcDbBlockEnd
  0
BLOCK
  5
1CA9
330
1CA8
100
AcDbEntity
  8
0
100
AcDbBlockBegin
  2
*D23
 70
     1
 10
0.0
 20
0.0
 30
0.0
  3
*D23
  1

  0
LINE
  5
2247
330
1CA8
100
AcDbEntity
  8
外形線
 62
     1
440
 16777216
370
     5
100
AcDbLine
 10
6180.093377920588
 20
2246.8449868507
 30
0.0
 11
6180.093377920588
 21
2191.242985905388
 31
0.0
  0
LINE
  5
2248
330
1CA8
100
AcDbEntity
  8
外形線
 62
     1
440
 16777216
370
     5
100
AcDbLine
 10
6442.093377920588
 20
2246.8449868507
 30
0.0
 11
6442.093377920588
 21
2191.242985905388
 31
0.0
  0
LINE
  5
2249
330
1CA8
100
AcDbEntity
  8
外形線
 62
     1
440
 16777216
370
     5
100
AcDbLine
 10
6195.093377920589
 20
2195.742985905388
 30
0.0
 11
6427.093377920588
 21
2195.742985905388
 31
0.0
  0
INSERT
  5
224A
330
1CA8
100
AcDbEntity
  8
外形線
 62
     1
440
 16777216
370
     5
100
AcDbBlockReference
  2
_Open
 10
6180.093377920588
 20
2195.742985905388
 30
0.0
 41
15.0
 42
15.0
 43
15.0
 50
180.0
  0
INSERT
  5
224B
330
1CA8
100
AcDbEntity
  8
外形線
 62
     1
440
 16777216
370
     5
100
AcDbBlockReference
  2
_Open
 10
6442.093377920588
 20
2195.742985905388
 30
0.0
 41
15.0
 42
15.0
 43
15.0
  0
MTEXT
  5
224C
330
1CA8
100
AcDbEntity
  8
外形線
 62
     6
440
 16777216
100
AcDbMText
 10
6311.093377920588
 20
2206.992985905388
 30
0.0
 40
15.0
 41
0.0
 71
     5
 72
     1
  1
\A1;262
  7
MSPゴシック
 73
     1
 44
1.0
  0
POINT
  5
224D
330
1CA8
100
AcDbEntity
  8
Defpoints
 62
     0
440
 16777216
100
AcDbPoint
 10
6180.093377920588
 20
2251.3449868507
 30
0.0
  0
POINT
  5
224E
330
1CA8
100
AcDbEntity
  8
Defpoints
 62
     0
440
 16777216
100
AcDbPoint
 10
6442.093377920588
 20
2251.3449868507
 30
0.0
  0
POINT
  5
224F
330
1CA8
100
AcDbEntity
  8
Defpoints
 62
     0
440
 16777216
100
AcDbPoint
 10
6442.093377920588
 20
2195.742985905388
 30
0.0
  0
ENDBLK
  5
1CAA
330
1CA8
100
AcDbEntity
  8
0
100
AcDbBlockEnd
  0
BLOCK
  5
1CB5
330
1CB4
100
AcDbEntity
  8
0
100
AcDbBlockBegin
  2
*D24
 70
     1
 10
0.0
 20
0.0
 30
0.0
  3
*D24
  1

  0
LINE
  5
2250
330
1CB4
100
AcDbEntity
  8
外形線
 62
     1
440
 16777216
370
     5
100
AcDbLine
 10
6172.093377920588
 20
2253.344989036616
 30
0.0
 11
6172.093377920588
 21
2156.341488766369
 31
0.0
  0
LINE
  5
2251
330
1CB4
100
AcDbEntity
  8
外形線
 62
     1
440
 16777216
370
     5
100
AcDbLine
 10
6450.093377920588
 20
2253.344989036616
 30
0.0
 11
6450.093377920588
 21
2156.341488766369
 31
0.0
  0
LINE
  5
2252
330
1CB4
100
AcDbEntity
  8
外形線
 62
     1
440
 16777216
370
     5
100
AcDbLine
 10
6187.093377920588
 20
2160.84148876637
 30
0.0
 11
6435.093377920587
 21
2160.84148876637
 31
0.0
  0
INSERT
  5
2253
330
1CB4
100
AcDbEntity
  8
外形線
 62
     1
440
 16777216
370
     5
100
AcDbBlockReference
  2
_Open
 10
6172.093377920588
 20
2160.84148876637
 30
0.0
 41
15.0
 42
15.0
 43
15.0
 50
180.0
  0
INSERT
  5
2254
330
1CB4
100
AcDbEntity
  8
外形線
 62
     1
440
 16777216
370
     5
100
AcDbBlockReference
  2
_Open
 10
6450.093377920588
 20
2160.84148876637
 30
0.0
 41
15.0
 42
15.0
 43
15.0
  0
MTEXT
  5
2255
330
1CB4
100
AcDbEntity
  8
外形線
 62
     6
440
 16777216
100
AcDbMText
 10
6311.093377920588
 20
2172.091488766369
 30
0.0
 40
15.0
 41
0.0
 71
     5
 72
     1
  1
\A1;278
  7
MSPゴシック
 73
     1
 44
1.0
  0
POINT
  5
2256
330
1CB4
100
AcDbEntity
  8
Defpoints
 62
     0
440
 16777216
100
AcDbPoint
 10
6172.093377920588
 20
2257.844989036616
 30
0.0
  0
POINT
  5
2257
330
1CB4
100
AcDbEntity
  8
Defpoints
 62
     0
440
 16777216
100
AcDbPoint
 10
6450.093377920588
 20
2257.844989036616
 30
0.0
  0
POINT
  5
2258
330
1CB4
100
AcDbEntity
  8
Defpoints
 62
     0
440
 16777216
100
AcDbPoint
 10
6450.093377920588
 20
2160.84148876637
 30
0.0
  0
ENDBLK
  5
1CB6
330
1CB4
100
AcDbEntity
  8
0
100
AcDbBlockEnd
  0
BLOCK
  5
1CC1
330
1CC0
100
AcDbEntity
  8
0
100
AcDbBlockBegin
  2
*D25
 70
     1
 10
0.0
 20
0.0
 30
0.0
  3
*D25
  1

  0
LINE
  5
2259
330
1CC0
100
AcDbEntity
  8
外形線
 62
     1
440
 16777216
370
     5
100
AcDbLine
 10
6715.83627658934
 20
2244.244986850694
 30
0.0
 11
6715.83627658934
 21
2121.705847967591
 31
0.0
  0
LINE
  5
225A
330
1CC0
100
AcDbEntity
  8
外形線
 62
     1
440
 16777216
370
     5
100
AcDbLine
 10
6980.83627658934
 20
2244.244986850694
 30
0.0
 11
6980.83627658934
 21
2121.705847967591
 31
0.0
  0
LINE
  5
225B
330
1CC0
100
AcDbEntity
  8
外形線
 62
     1
440
 16777216
370
     5
100
AcDbLine
 10
6730.83627658934
 20
2126.205847967591
 30
0.0
 11
6965.83627658934
 21
2126.205847967591
 31
0.0
  0
INSERT
  5
225C
330
1CC0
100
AcDbEntity
  8
外形線
 62
     1
440
 16777216
370
     5
100
AcDbBlockReference
  2
_Open
 10
6715.83627658934
 20
2126.205847967591
 30
0.0
 41
15.0
 42
15.0
 43
15.0
 50
180.0
  0
INSERT
  5
225D
330
1CC0
100
AcDbEntity
  8
外形線
 62
     1
440
 16777216
370
     5
100
AcDbBlockReference
  2
_Open
 10
6980.83627658934
 20
2126.205847967591
 30
0.0
 41
15.0
 42
15.0
 43
15.0
  0
MTEXT
  5
225E
330
1CC0
100
AcDbEntity
  8
外形線
 62
     6
440
 16777216
100
AcDbMText
 10
6848.33627658934
 20
2137.455847967591
 30
0.0
 40
15.0
 41
0.0
 71
     5
 72
     1
  1
\A1;265
  7
MSPゴシック
 73
     1
 44
1.0
  0
POINT
  5
225F
330
1CC0
100
AcDbEntity
  8
Defpoints
 62
     0
440
 16777216
100
AcDbPoint
 10
6715.83627658934
 20
2248.744986850694
 30
0.0
  0
POINT
  5
2260
330
1CC0
100
AcDbEntity
  8
Defpoints
 62
     0
440
 16777216
100
AcDbPoint
 10
6980.83627658934
 20
2248.744986850694
 30
0.0
  0
POINT
  5
2261
330
1CC0
100
AcDbEntity
  8
Defpoints
 62
     0
440
 16777216
100
AcDbPoint
 10
6980.83627658934
 20
2126.205847967591
 30
0.0
  0
ENDBLK
  5
1CC2
330
1CC0
100
AcDbEntity
  8
0
100
AcDbBlockEnd
  0
BLOCK
  5
1CCD
330
1CCC
100
AcDbEntity
  8
0
100
AcDbBlockBegin
  2
*D26
 70
     1
 10
0.0
 20
0.0
 30
0.0
  3
*D26
  1

  0
LINE
  5
2262
330
1CCC
100
AcDbEntity
  8
外形線
 62
     1
440
 16777216
370
     5
100
AcDbLine
 10
6784.33627658934
 20
2246.844991222531
 30
0.0
 11
6784.33627658934
 21
2158.99483744511
 31
0.0
  0
LINE
  5
2263
330
1CCC
100
AcDbEntity
  8
外形線
 62
     1
440
 16777216
370
     5
100
AcDbLine
 10
6912.33627658934
 20
2246.844986850693
 30
0.0
 11
6912.33627658934
 21
2158.99483744511
 31
0.0
  0
LINE
  5
2264
330
1CCC
100
AcDbEntity
  8
外形線
 62
     1
440
 16777216
370
     5
100
AcDbLine
 10
6799.33627658934
 20
2163.494837445109
 30
0.0
 11
6897.33627658934
 21
2163.494837445109
 31
0.0
  0
INSERT
  5
2265
330
1CCC
100
AcDbEntity
  8
外形線
 62
     1
440
 16777216
370
     5
100
AcDbBlockReference
  2
_Open
 10
6784.33627658934
 20
2163.494837445109
 30
0.0
 41
15.0
 42
15.0
 43
15.0
 50
180.0
  0
INSERT
  5
2266
330
1CCC
100
AcDbEntity
  8
外形線
 62
     1
440
 16777216
370
     5
100
AcDbBlockReference
  2
_Open
 10
6912.33627658934
 20
2163.494837445109
 30
0.0
 41
15.0
 42
15.0
 43
15.0
  0
MTEXT
  5
2267
330
1CCC
100
AcDbEntity
  8
外形線
 62
     6
440
 16777216
100
AcDbMText
 10
6848.33627658934
 20
2174.744837445109
 30
0.0
 40
15.0
 41
0.0
 71
     5
 72
     1
  1
\A1;128
  7
MSPゴシック
 73
     1
 44
1.0
  0
POINT
  5
2268
330
1CCC
100
AcDbEntity
  8
Defpoints
 62
     0
440
 16777216
100
AcDbPoint
 10
6784.33627658934
 20
2251.344991222532
 30
0.0
  0
POINT
  5
2269
330
1CCC
100
AcDbEntity
  8
Defpoints
 62
     0
440
 16777216
100
AcDbPoint
 10
6912.33627658934
 20
2251.344986850693
 30
0.0
  0
POINT
  5
226A
330
1CCC
100
AcDbEntity
  8
Defpoints
 62
     0
440
 16777216
100
AcDbPoint
 10
6912.33627658934
 20
2163.494837445109
 30
0.0
  0
ENDBLK
  5
1CCE
330
1CCC
100
AcDbEntity
  8
0
100
AcDbBlockEnd
  0
BLOCK
  5
1CD9
330
1CD8
100
AcDbEntity
  8
0
100
AcDbBlockBegin
  2
*D27
 70
     1
 10
0.0
 20
0.0
 30
0.0
  3
*D27
  1

  0
LINE
  5
226B
330
1CD8
100
AcDbEntity
  8
外形線
 62
     1
440
 16777216
370
     5
100
AcDbLine
 10
6111.879330629592
 20
3007.815201898058
 30
0.0
 11
6111.879330629592
 21
2906.719273110428
 31
0.0
  0
LINE
  5
226C
330
1CD8
100
AcDbEntity
  8
外形線
 62
     1
440
 16777216
370
     5
100
AcDbLine
 10
6511.879330629584
 20
3007.815201898058
 30
0.0
 11
6511.879330629584
 21
2906.719273110428
 31
0.0
  0
LINE
  5
226D
330
1CD8
100
AcDbEntity
  8
外形線
 62
     1
440
 16777216
370
     5
100
AcDbLine
 10
6126.879330629591
 20
2911.219273110428
 30
0.0
 11
6496.879330629585
 21
2911.219273110428
 31
0.0
  0
INSERT
  5
226E
330
1CD8
100
AcDbEntity
  8
外形線
 62
     1
440
 16777216
370
     5
100
AcDbBlockReference
  2
_Open
 10
6111.879330629592
 20
2911.219273110428
 30
0.0
 41
15.0
 42
15.0
 43
15.0
 50
180.0
  0
INSERT
  5
226F
330
1CD8
100
AcDbEntity
  8
外形線
 62
     1
440
 16777216
370
     5
100
AcDbBlockReference
  2
_Open
 10
6511.879330629584
 20
2911.219273110428
 30
0.0
 41
15.0
 42
15.0
 43
15.0
  0
MTEXT
  5
2270
330
1CD8
100
AcDbEntity
  8
外形線
 62
     6
440
 16777216
100
AcDbMText
 10
6311.879330629587
 20
2922.469273110428
 30
0.0
 40
15.0
 41
0.0
 71
     5
 72
     1
  1
\A1;400
  7
MSPゴシック
 73
     1
 44
1.0
  0
POINT
  5
2271
330
1CD8
100
AcDbEntity
  8
Defpoints
 62
     0
440
 16777216
100
AcDbPoint
 10
6111.879330629592
 20
3012.315201898058
 30
0.0
  0
POINT
  5
2272
330
1CD8
100
AcDbEntity
  8
Defpoints
 62
     0
440
 16777216
100
AcDbPoint
 10
6511.879330629584
 20
3012.315201898058
 30
0.0
  0
POINT
  5
2273
330
1CD8
100
AcDbEntity
  8
Defpoints
 62
     0
440
 16777216
100
AcDbPoint
 10
6511.879330629584
 20
2911.219273110428
 30
0.0
  0
ENDBLK
  5
1CDA
330
1CD8
100
AcDbEntity
  8
0
100
AcDbBlockEnd
  0
BLOCK
  5
1CE5
330
1CE4
100
AcDbEntity
  8
0
100
AcDbBlockBegin
  2
*D28
 70
     1
 10
0.0
 20
0.0
 30
0.0
  3
*D28
  1

  0
LINE
  5
2274
330
1CE4
100
AcDbEntity
  8
寸法線
 62
     1
440
 16777216
370
     5
100
AcDbLine
 10
6496.379338702465
 20
3257.315201898058
 30
0.0
 11
6626.076198093321
 21
3257.315201898058
 31
0.0
  0
LINE
  5
2275
330
1CE4
100
AcDbEntity
  8
寸法線
 62
     1
440
 16777216
370
     5
100
AcDbLine
 10
6496.379330629586
 20
2992.315201898058
 30
0.0
 11
6626.076198093321
 21
2992.315201898058
 31
0.0
  0
LINE
  5
2276
330
1CE4
100
AcDbEntity
  8
寸法線
 62
     1
440
 16777216
370
     5
100
AcDbLine
 10
6621.576198093321
 20
3242.315201898058
 30
0.0
 11
6621.576198093321
 21
3007.315201898058
 31
0.0
  0
INSERT
  5
2277
330
1CE4
100
AcDbEntity
  8
寸法線
 62
     1
440
 16777216
370
     5
100
AcDbBlockReference
  2
_Open
 10
6621.576198093321
 20
3257.315201898058
 30
0.0
 41
15.0
 42
15.0
 43
15.0
 50
90.0
  0
INSERT
  5
2278
330
1CE4
100
AcDbEntity
  8
寸法線
 62
     1
440
 16777216
370
     5
100
AcDbBlockReference
  2
_Open
 10
6621.576198093321
 20
2992.315201898058
 30
0.0
 41
15.0
 42
15.0
 43
15.0
 50
270.0
  0
MTEXT
  5
2279
330
1CE4
100
AcDbEntity
  8
寸法線
 62
     6
440
 16777216
100
AcDbMText
 10
6610.32619809332
 20
3124.815201898059
 30
0.0
 40
15.0
 41
0.0
 71
     5
 72
     1
  1
\A1;265
  7
MSPゴシック
 11
0.0000000000000001
 21
1.0
 31
0.0
 73
     1
 44
1.0
  0
POINT
  5
227A
330
1CE4
100
AcDbEntity
  8
Defpoints
 62
     0
440
 16777216
100
AcDbPoint
 10
6491.879338702465
 20
3257.315201898058
 30
0.0
  0
POINT
  5
227B
330
1CE4
100
AcDbEntity
  8
Defpoints
 62
     0
440
 16777216
100
AcDbPoint
 10
6491.879330629585
 20
2992.315201898058
 30
0.0
  0
POINT
  5
227C
330
1CE4
100
AcDbEntity
  8
Defpoints
 62
     0
440
 16777216
100
AcDbPoint
 10
6621.576198093321
 20
2992.315201898058
 30
0.0
  0
ENDBLK
  5
1CE6
330
1CE4
100
AcDbEntity
  8
0
100
AcDbBlockEnd
  0
BLOCK
  5
1CF1
330
1CF0
100
AcDbEntity
  8
0
100
AcDbBlockBegin
  2
*D29
 70
     1
 10
0.0
 20
0.0
 30
0.0
  3
*D29
  1

  0
LINE
  5
227D
330
1CF0
100
AcDbEntity
  8
寸法線
 62
     1
440
 16777216
370
     5
100
AcDbLine
 10
6433.979330629593
 20
3188.814293954092
 30
0.0
 11
6584.740838438065
 21
3188.814293954092
 31
0.0
  0
LINE
  5
227E
330
1CF0
100
AcDbEntity
  8
寸法線
 62
     1
440
 16777216
370
     5
100
AcDbLine
 10
6422.479330629593
 20
3060.814293954081
 30
0.0
 11
6584.740838438065
 21
3060.814293954081
 31
0.0
  0
LINE
  5
227F
330
1CF0
100
AcDbEntity
  8
寸法線
 62
     1
440
 16777216
370
     5
100
AcDbLine
 10
6580.240838438065
 20
3173.814293954092
 30
0.0
 11
6580.240838438065
 21
3075.814293954082
 31
0.0
  0
INSERT
  5
2280
330
1CF0
100
AcDbEntity
  8
寸法線
 62
     1
440
 16777216
370
     5
100
AcDbBlockReference
  2
_Open
 10
6580.240838438065
 20
3188.814293954092
 30
0.0
 41
15.0
 42
15.0
 43
15.0
 50
90.0
  0
INSERT
  5
2281
330
1CF0
100
AcDbEntity
  8
寸法線
 62
     1
440
 16777216
370
     5
100
AcDbBlockReference
  2
_Open
 10
6580.240838438065
 20
3060.814293954081
 30
0.0
 41
15.0
 42
15.0
 43
15.0
 50
270.0
  0
MTEXT
  5
2282
330
1CF0
100
AcDbEntity
  8
寸法線
 62
     6
440
 16777216
100
AcDbMText
 10
6568.990838438065
 20
3124.814293954088
 30
0.0
 40
15.0
 41
0.0
 71
     5
 72
     1
  1
\A1;128
  7
MSPゴシック
 11
0.0000000000000001
 21
1.0
 31
0.0
 73
     1
 44
1.0
  0
POINT
  5
2283
330
1CF0
100
AcDbEntity
  8
Defpoints
 62
     0
440
 16777216
100
AcDbPoint
 10
6429.479330629593
 20
3188.814293954092
 30
0.0
  0
POINT
  5
2284
330
1CF0
100
AcDbEntity
  8
Defpoints
 62
     0
440
 16777216
100
AcDbPoint
 10
6417.979330629595
 20
3060.814293954081
 30
0.0
  0
POINT
  5
2285
330
1CF0
100
AcDbEntity
  8
Defpoints
 62
     0
440
 16777216
100
AcDbPoint
 10
6580.240838438065
 20
3060.814293954081
 30
0.0
  0
ENDBLK
  5
1CF2
330
1CF0
100
AcDbEntity
  8
0
100
AcDbBlockEnd
  0
BLOCK
  5
1CFD
330
1CFC
100
AcDbEntity
  8
0
100
AcDbBlockBegin
  2
*D30
 70
     1
 10
0.0
 20
0.0
 30
0.0
  3
*D30
  1

  0
LINE
  5
2286
330
1CFC
100
AcDbEntity
  8
外形線
 62
     1
440
 16777216
370
     5
100
AcDbLine
 10
6181.679330629588
 20
3082.014293954087
 30
0.0
 11
6181.679330629588
 21
2940.653587612596
 31
0.0
  0
LINE
  5
2287
330
1CFC
100
AcDbEntity
  8
外形線
 62
     1
440
 16777216
370
     5
100
AcDbLine
 10
6443.679330629596
 20
3082.014293954087
 30
0.0
 11
6443.679330629596
 21
2940.653587612596
 31
0.0
  0
LINE
  5
2288
330
1CFC
100
AcDbEntity
  8
外形線
 62
     1
440
 16777216
370
     5
100
AcDbLine
 10
6196.679330629588
 20
2945.153587612596
 30
0.0
 11
6428.679330629595
 21
2945.153587612596
 31
0.0
  0
INSERT
  5
2289
330
1CFC
100
AcDbEntity
  8
外形線
 62
     1
440
 16777216
370
     5
100
AcDbBlockReference
  2
_Open
 10
6181.679330629588
 20
2945.153587612596
 30
0.0
 41
15.0
 42
15.0
 43
15.0
 50
180.0
  0
INSERT
  5
228A
330
1CFC
100
AcDbEntity
  8
外形線
 62
     1
440
 16777216
370
     5
100
AcDbBlockReference
  2
_Open
 10
6443.679330629596
 20
2945.153587612596
 30
0.0
 41
15.0
 42
15.0
 43
15.0
  0
MTEXT
  5
228B
330
1CFC
100
AcDbEntity
  8
外形線
 62
     6
440
 16777216
100
AcDbMText
 10
6312.679330629592
 20
2956.403587612598
 30
0.0
 40
15.0
 41
0.0
 71
     5
 72
     1
  1
\A1;262
  7
MSPゴシック
 73
     1
 44
1.0
  0
POINT
  5
228C
330
1CFC
100
AcDbEntity
  8
Defpoints
 62
     0
440
 16777216
100
AcDbPoint
 10
6181.679330629588
 20
3086.514293954087
 30
0.0
  0
POINT
  5
228D
330
1CFC
100
AcDbEntity
  8
Defpoints
 62
     0
440
 16777216
100
AcDbPoint
 10
6443.679330629596
 20
3086.514293954087
 30
0.0
  0
POINT
  5
228E
330
1CFC
100
AcDbEntity
  8
Defpoints
 62
     0
440
 16777216
100
AcDbPoint
 10
6443.679330629596
 20
2945.153587612596
 30
0.0
  0
ENDBLK
  5
1CFE
330
1CFC
100
AcDbEntity
  8
0
100
AcDbBlockEnd
  0
BLOCK
  5
1D09
330
1D08
100
AcDbEntity
  8
0
100
AcDbBlockBegin
  2
*D31
 70
     1
 10
0.0
 20
0.0
 30
0.0
  3
*D31
  1

  0
LINE
  5
228F
330
1D08
100
AcDbEntity
  8
寸法線
 62
     1
440
 16777216
370
     5
100
AcDbLine
 10
5782.568910719474
 20
2776.3449868507
 30
0.0
 11
5900.006526484279
 21
2776.3449868507
 31
0.0
  0
LINE
  5
2290
330
1D08
100
AcDbEntity
  8
寸法線
 62
     1
440
 16777216
370
     5
100
AcDbLine
 10
5782.568910719474
 20
2301.344986850696
 30
0.0
 11
5900.006526484279
 21
2301.344986850696
 31
0.0
  0
LINE
  5
2291
330
1D08
100
AcDbEntity
  8
寸法線
 62
     1
440
 16777216
370
     5
100
AcDbLine
 10
5895.506526484279
 20
2761.3449868507
 30
0.0
 11
5895.506526484279
 21
2316.344986850696
 31
0.0
  0
INSERT
  5
2292
330
1D08
100
AcDbEntity
  8
寸法線
 62
     1
440
 16777216
370
     5
100
AcDbBlockReference
  2
_Open
 10
5895.506526484279
 20
2776.3449868507
 30
0.0
 41
15.0
 42
15.0
 43
15.0
 50
90.0
  0
INSERT
  5
2293
330
1D08
100
AcDbEntity
  8
寸法線
 62
     1
440
 16777216
370
     5
100
AcDbBlockReference
  2
_Open
 10
5895.506526484279
 20
2301.344986850696
 30
0.0
 41
15.0
 42
15.0
 43
15.0
 50
270.0
  0
MTEXT
  5
2294
330
1D08
100
AcDbEntity
  8
寸法線
 62
     6
440
 16777216
100
AcDbMText
 10
5884.256526484277
 20
2538.844986850699
 30
0.0
 40
15.0
 41
0.0
 71
     5
 72
     1
  1
\A1;475
  7
MSPゴシック
 11
0.0000000000000001
 21
1.0
 31
0.0
 73
     1
 44
1.0
  0
POINT
  5
2295
330
1D08
100
AcDbEntity
  8
Defpoints
 62
     0
440
 16777216
100
AcDbPoint
 10
5778.068910719474
 20
2776.3449868507
 30
0.0
  0
POINT
  5
2296
330
1D08
100
AcDbEntity
  8
Defpoints
 62
     0
440
 16777216
100
AcDbPoint
 10
5778.068910719474
 20
2301.344986850696
 30
0.0
  0
POINT
  5
2297
330
1D08
100
AcDbEntity
  8
Defpoints
 62
     0
440
 16777216
100
AcDbPoint
 10
5895.506526484279
 20
2301.344986850696
 30
0.0
  0
ENDBLK
  5
1D0A
330
1D08
100
AcDbEntity
  8
0
100
AcDbBlockEnd
  0
BLOCK
  5
1D15
330
1D14
100
AcDbEntity
  8
0
100
AcDbBlockBegin
  2
*D32
 70
     1
 10
0.0
 20
0.0
 30
0.0
  3
*D32
  1

  0
LINE
  5
2298
330
1D14
100
AcDbEntity
  8
寸法線
 62
     1
440
 16777216
370
     5
100
AcDbLine
 10
5827.568910719474
 20
2848.344986850696
 30
0.0
 11
5947.459357013348
 21
2848.344986850696
 31
0.0
  0
LINE
  5
2299
330
1D14
100
AcDbEntity
  8
寸法線
 62
     1
440
 16777216
370
     5
100
AcDbLine
 10
5896.068917613241
 20
2251.344978407406
 30
0.0
 11
5947.459357013348
 21
2251.344978407406
 31
0.0
  0
LINE
  5
229A
330
1D14
100
AcDbEntity
  8
寸法線
 62
     1
440
 16777216
370
     5
100
AcDbLine
 10
5942.959357013347
 20
2833.344986850696
 30
0.0
 11
5942.959357013347
 21
2266.344978407406
 31
0.0
  0
INSERT
  5
229B
330
1D14
100
AcDbEntity
  8
寸法線
 62
     1
440
 16777216
370
     5
100
AcDbBlockReference
  2
_Open
 10
5942.959357013347
 20
2848.344986850696
 30
0.0
 41
15.0
 42
15.0
 43
15.0
 50
90.0
  0
INSERT
  5
229C
330
1D14
100
AcDbEntity
  8
寸法線
 62
     1
440
 16777216
370
     5
100
AcDbBlockReference
  2
_Open
 10
5942.959357013347
 20
2251.344978407406
 30
0.0
 41
15.0
 42
15.0
 43
15.0
 50
270.0
  0
MTEXT
  5
229D
330
1D14
100
AcDbEntity
  8
寸法線
 62
     6
440
 16777216
100
AcDbMText
 10
5931.709357013346
 20
2549.844982629052
 30
0.0
 40
15.0
 41
0.0
 71
     5
 72
     1
  1
\A1;597
  7
MSPゴシック
 11
0.0000000000000001
 21
1.0
 31
0.0
 73
     1
 44
1.0
  0
POINT
  5
229E
330
1D14
100
AcDbEntity
  8
Defpoints
 62
     0
440
 16777216
100
AcDbPoint
 10
5823.068910719474
 20
2848.344986850696
 30
0.0
  0
POINT
  5
229F
330
1D14
100
AcDbEntity
  8
Defpoints
 62
     0
440
 16777216
100
AcDbPoint
 10
5891.56891761324
 20
2251.344978407406
 30
0.0
  0
POINT
  5
22A0
330
1D14
100
AcDbEntity
  8
Defpoints
 62
     0
440
 16777216
100
AcDbPoint
 10
5942.959357013347
 20
2251.344978407406
 30
0.0
  0
ENDBLK
  5
1D16
330
1D14
100
AcDbEntity
  8
0
100
AcDbBlockEnd
  0
BLOCK
  5
1D21
330
1D20
100
AcDbEntity
  8
0
100
AcDbBlockBegin
  2
*D33
 70
     1
 10
0.0
 20
0.0
 30
0.0
  3
*D33
  1

  0
LINE
  5
22A1
330
1D20
100
AcDbEntity
  8
寸法線
 62
     1
440
 16777216
370
     5
100
AcDbLine
 10
5896.068898822836
 20
2251.344986850696
 30
0.0
 11
5947.459357013348
 21
2251.344986850696
 31
0.0
  0
LINE
  5
22A2
330
1D20
100
AcDbEntity
  8
寸法線
 62
     1
440
 16777216
370
     5
100
AcDbLine
 10
5896.068898822836
 20
2248.744986850697
 30
0.0
 11
5947.459357013348
 21
2248.744986850697
 31
0.0
  0
LINE
  5
22A3
330
1D20
100
AcDbEntity
  8
寸法線
 62
     1
440
 16777216
370
     5
100
AcDbLine
 10
5942.959357013347
 20
2266.344986850696
 30
0.0
 11
5942.959357013347
 21
2281.344986850696
 31
0.0
  0
LINE
  5
22A4
330
1D20
100
AcDbEntity
  8
寸法線
 62
     1
440
 16777216
370
     5
100
AcDbLine
 10
5942.959357013347
 20
2233.744986850698
 30
0.0
 11
5942.959357013347
 21
2218.744986850698
 31
0.0
  0
MTEXT
  5
22A5
330
1D20
100
AcDbEntity
  8
寸法線
 62
     6
440
 16777216
100
AcDbMText
 10
5931.709357013347
 20
2218.744986850698
 30
0.0
 40
15.0
 41
0.0
 71
     5
 72
     1
  1
\A1;3
  7
MSPゴシック
 11
0.0000000000000001
 21
1.0
 31
0.0
 73
     1
 44
1.0
  0
LINE
  5
22A6
330
1D20
100
AcDbEntity
  8
寸法線
 62
     1
440
 16777216
370
     5
100
AcDbLine
 10
5942.959357013347
 20
2251.344986850696
 30
0.0
 11
5942.959357013347
 21
2248.744986850697
 31
0.0
  0
INSERT
  5
22A7
330
1D20
100
AcDbEntity
  8
寸法線
 62
     1
440
 16777216
370
     5
100
AcDbBlockReference
  2
_Open
 10
5942.959357013347
 20
2251.344986850696
 30
0.0
 41
15.0
 42
15.0
 43
15.0
 50
270.0
  0
INSERT
  5
22A8
330
1D20
100
AcDbEntity
  8
寸法線
 62
     1
440
 16777216
370
     5
100
AcDbBlockReference
  2
_Open
 10
5942.959357013347
 20
2248.744986850697
 30
0.0
 41
15.0
 42
15.0
 43
15.0
 50
90.0
  0
POINT
  5
22A9
330
1D20
100
AcDbEntity
  8
Defpoints
 62
     0
440
 16777216
100
AcDbPoint
 10
5891.568898822836
 20
2251.344986850696
 30
0.0
  0
POINT
  5
22AA
330
1D20
100
AcDbEntity
  8
Defpoints
 62
     0
440
 16777216
100
AcDbPoint
 10
5891.568898822836
 20
2248.744986850697
 30
0.0
  0
POINT
  5
22AB
330
1D20
100
AcDbEntity
  8
Defpoints
 62
     0
440
 16777216
100
AcDbPoint
 10
5942.959357013347
 20
2248.744986850697
 30
0.0
  0
ENDBLK
  5
1D22
330
1D20
100
AcDbEntity
  8
0
100
AcDbBlockEnd
  0
BLOCK
  5
1D31
330
1D30
100
AcDbEntity
  8
0
100
AcDbBlockBegin
  2
*D34
 70
     1
 10
0.0
 20
0.0
 30
0.0
  3
*D34
  1

  0
LINE
  5
222C
330
1D30
100
AcDbEntity
  8
寸法線
 62
     1
440
 16777216
370
     5
100
AcDbLine
 10
6446.593377920584
 20
2848.3449868507
 30
0.0
 11
6626.804513370649
 21
2848.3449868507
 31
0.0
  0
LINE
  5
222D
330
1D30
100
AcDbEntity
  8
寸法線
 62
     1
440
 16777216
370
     5
100
AcDbLine
 10
6515.593377920592
 20
2248.744986850697
 30
0.0
 11
6626.804513370649
 21
2248.744986850697
 31
0.0
  0
LINE
  5
222E
330
1D30
100
AcDbEntity
  8
寸法線
 62
     1
440
 16777216
370
     5
100
AcDbLine
 10
6622.304513370649
 20
2833.3449868507
 30
0.0
 11
6622.304513370649
 21
2263.744986850698
 31
0.0
  0
INSERT
  5
222F
330
1D30
100
AcDbEntity
  8
寸法線
 62
     1
440
 16777216
370
     5
100
AcDbBlockReference
  2
_Open
 10
6622.304513370649
 20
2848.3449868507
 30
0.0
 41
15.0
 42
15.0
 43
15.0
 50
90.0
  0
INSERT
  5
2230
330
1D30
100
AcDbEntity
  8
寸法線
 62
     1
440
 16777216
370
     5
100
AcDbBlockReference
  2
_Open
 10
6622.304513370649
 20
2248.744986850697
 30
0.0
 41
15.0
 42
15.0
 43
15.0
 50
270.0
  0
MTEXT
  5
2231
330
1D30
100
AcDbEntity
  8
寸法線
 62
     6
440
 16777216
100
AcDbMText
 10
6611.05451337065
 20
2548.544986850699
 30
0.0
 40
15.0
 41
0.0
 71
     5
 72
     1
  1
\A1;600
  7
MSPゴシック
 11
0.0000000000000001
 21
1.0
 31
0.0
 73
     1
 44
1.0
  0
POINT
  5
2232
330
1D30
100
AcDbEntity
  8
Defpoints
 62
     0
440
 16777216
100
AcDbPoint
 10
6442.093377920584
 20
2848.3449868507
 30
0.0
  0
POINT
  5
2233
330
1D30
100
AcDbEntity
  8
Defpoints
 62
     0
440
 16777216
100
AcDbPoint
 10
6511.093377920592
 20
2248.744986850697
 30
0.0
  0
POINT
  5
2234
330
1D30
100
AcDbEntity
  8
Defpoints
 62
     0
440
 16777216
100
AcDbPoint
 10
6622.304513370649
 20
2248.744986850697
 30
0.0
  0
ENDBLK
  5
1D32
330
1D30
100
AcDbEntity
  8
0
100
AcDbBlockEnd
  0
BLOCK
  5
1D3D
330
1D3C
100
AcDbEntity
  8
0
100
AcDbBlockBegin
  2
*D35
 70
     1
 10
0.0
 20
0.0
 30
0.0
  3
*D35
  1

  0
LINE
  5
2235
330
1D3C
100
AcDbEntity
  8
寸法線
 62
     1
440
 16777216
370
     5
100
AcDbLine
 10
6443.34434039153
 20
2839.344986850696
 30
0.0
 11
6577.125163906647
 21
2839.344986850696
 31
0.0
  0
LINE
  5
2236
330
1D3C
100
AcDbEntity
  8
寸法線
 62
     1
440
 16777216
370
     5
100
AcDbLine
 10
6515.593377920588
 20
2248.744986850694
 30
0.0
 11
6577.125163906647
 21
2248.744986850694
 31
0.0
  0
LINE
  5
2237
330
1D3C
100
AcDbEntity
  8
寸法線
 62
     1
440
 16777216
370
     5
100
AcDbLine
 10
6572.625163906647
 20
2824.344986850696
 30
0.0
 11
6572.625163906647
 21
2263.744986850694
 31
0.0
  0
INSERT
  5
2238
330
1D3C
100
AcDbEntity
  8
寸法線
 62
     1
440
 16777216
370
     5
100
AcDbBlockReference
  2
_Open
 10
6572.625163906647
 20
2839.344986850696
 30
0.0
 41
15.0
 42
15.0
 43
15.0
 50
90.0
  0
INSERT
  5
2239
330
1D3C
100
AcDbEntity
  8
寸法線
 62
     1
440
 16777216
370
     5
100
AcDbBlockReference
  2
_Open
 10
6572.625163906647
 20
2248.744986850694
 30
0.0
 41
15.0
 42
15.0
 43
15.0
 50
270.0
  0
MTEXT
  5
223A
330
1D3C
100
AcDbEntity
  8
寸法線
 62
     6
440
 16777216
100
AcDbMText
 10
6558.946186633919
 20
2544.044986850697
 30
0.0
 40
15.0
 41
0.0
 71
     5
 72
     1
  1
\A1;591(天板高さ)
  7
MSPゴシック
 11
0.0000000000000001
 21
1.0
 31
0.0
 73
     1
 44
1.0
  0
POINT
  5
223B
330
1D3C
100
AcDbEntity
  8
Defpoints
 62
     0
440
 16777216
100
AcDbPoint
 10
6438.84434039153
 20
2839.344986850696
 30
0.0
  0
POINT
  5
223C
330
1D3C
100
AcDbEntity
  8
Defpoints
 62
     0
440
 16777216
100
AcDbPoint
 10
6511.093377920587
 20
2248.744986850694
 30
0.0
  0
POINT
  5
223D
330
1D3C
100
AcDbEntity
  8
Defpoints
 62
     0
440
 16777216
100
AcDbPoint
 10
6572.625163906647
 20
2248.744986850694
 30
0.0
  0
ENDBLK
  5
1D3E
330
1D3C
100
AcDbEntity
  8
0
100
AcDbBlockEnd
  0
BLOCK
  5
1D4D
330
1D4C
100
AcDbEntity
  8
0
100
AcDbBlockBegin
  2
*D36
 70
     1
 10
0.0
 20
0.0
 30
0.0
  3
*D36
  1

  0
LINE
  5
2303
330
1D4C
100
AcDbEntity
  8
外形線
 62
     1
440
 16777216
370
     5
100
AcDbLine
 10
6111.093377920584
 20
2244.244986850697
 30
0.0
 11
6111.093377920584
 21
2121.705847967591
 31
0.0
  0
LINE
  5
2304
330
1D4C
100
AcDbEntity
  8
外形線
 62
     1
440
 16777216
370
     5
100
AcDbLine
 10
6511.093377920592
 20
2244.244986850697
 30
0.0
 11
6511.093377920592
 21
2121.705847967591
 31
0.0
  0
LINE
  5
2305
330
1D4C
100
AcDbEntity
  8
外形線
 62
     1
440
 16777216
370
     5
100
AcDbLine
 10
6126.093377920583
 20
2126.205847967591
 30
0.0
 11
6496.09337792059
 21
2126.205847967591
 31
0.0
  0
INSERT
  5
2306
330
1D4C
100
AcDbEntity
  8
外形線
 62
     1
440
 16777216
370
     5
100
AcDbBlockReference
  2
_Open
 10
6111.093377920584
 20
2126.205847967591
 30
0.0
 41
15.0
 42
15.0
 43
15.0
 50
180.0
  0
INSERT
  5
2307
330
1D4C
100
AcDbEntity
  8
外形線
 62
     1
440
 16777216
370
     5
100
AcDbBlockReference
  2
_Open
 10
6511.093377920592
 20
2126.205847967591
 30
0.0
 41
15.0
 42
15.0
 43
15.0
  0
MTEXT
  5
2308
330
1D4C
100
AcDbEntity
  8
外形線
 62
     6
440
 16777216
100
AcDbMText
 10
6311.093377920588
 20
2137.455847967591
 30
0.0
 40
15.0
 41
0.0
 71
     5
 72
     1
  1
\A1;400
  7
MSPゴシック
 73
     1
 44
1.0
  0
POINT
  5
2309
330
1D4C
100
AcDbEntity
  8
Defpoints
 62
     0
440
 16777216
100
AcDbPoint
 10
6111.093377920584
 20
2248.744986850697
 30
0.0
  0
POINT
  5
230A
330
1D4C
100
AcDbEntity
  8
Defpoints
 62
     0
440
 16777216
100
AcDbPoint
 10
6511.093377920592
 20
2248.744986850697
 30
0.0
  0
POINT
  5
230B
330
1D4C
100
AcDbEntity
  8
Defpoints
 62
     0
440
 16777216
100
AcDbPoint
 10
6511.093377920592
 20
2126.205847967591
 30
0.0
  0
ENDBLK
  5
1D4E
330
1D4C
100
AcDbEntity
  8
0
100
AcDbBlockEnd
  0
ENDSEC
  0
SECTION
  2
ENTITIES
  0
LWPOLYLINE
  5
9E0
330
1F
100
AcDbEntity
  8
図枠
100
AcDbPolyline
 90
        4
 70
     1
 43
2.5
 10
5439.852434753738
 20
1935.949978837936
 10
7389.852434753739
 20
1935.949978837936
 10
7389.852434753739
 20
3356.164778269434
 10
5439.852434753738
 20
3356.164778269434
  0
LINE
  5
9E9
330
1F
100
AcDbEntity
  8
図枠
100
AcDbLine
 10
7389.852434753739
 20
3291.164778269434
 30
0.0
 11
7389.852434753739
 21
3131.164778269435
 31
0.0
  0
LINE
  5
9F2
330
1F
100
AcDbEntity
  8
図枠
100
AcDbLine
 10
7389.852434753739
 20
3291.164778269434
 30
0.0
 11
7389.852434753739
 21
3131.164778269435
 31
0.0
  0
LINE
  5
1AA9
330
1F
100
AcDbEntity
  8
外形線
100
AcDbLine
 10
6912.336276283117
 20
2251.344991222532
 30
0.0
 11
6912.33627628312
 21
2848.844991222532
 31
0.0
  0
LINE
  5
1AAA
330
1F
100
AcDbEntity
  8
隠れ線
100
AcDbLine
 10
6911.136276589336
 20
2848.844991140561
 30
0.0
 11
6911.136276589343
 21
2251.344991140561
 31
0.0
  0
LINE
  5
1AAB
330
1F
100
AcDbEntity
  8
外形線
100
AcDbLine
 10
6912.336276283117
 20
2848.844991222532
 30
0.0
 11
6848.33627658934
 21
2848.844986850696
 31
0.0
  0
LINE
  5
1AAC
330
1F
100
AcDbEntity
  8
外形線
100
AcDbLine
 10
6848.33627658934
 20
2251.344986850696
 30
0.0
 11
6912.336276283117
 21
2251.344991222532
 31
0.0
  0
CIRCLE
  5
1AAD
330
1F
100
AcDbEntity
  8
隠れ線
100
AcDbCircle
 10
6858.33627658934
 20
2266.344986850696
 30
0.0
 40
2.5
  0
LINE
  5
1AAE
330
1F
100
AcDbEntity
  8
外形線
100
AcDbLine
 10
6848.33627658934
 20
2848.844986850692
 30
0.0
 11
6848.33627658934
 21
2251.344986850693
 31
0.0
  0
LINE
  5
1AAF
330
1F
100
AcDbEntity
  8
隠れ線
100
AcDbLine
 10
6848.33627658934
 20
2251.344986850693
 30
0.0
 11
6848.33627658934
 21
2281.344986850696
 31
0.0
  0
CIRCLE
  5
1AB0
330
1F
100
AcDbEntity
  8
隠れ線
100
AcDbCircle
 10
6858.336276283117
 20
2266.344991222531
 30
0.0
 40
2.5
  0
LINE
  5
1AB1
330
1F
100
AcDbEntity
  8
外形線
100
AcDbLine
 10
6848.33627658934
 20
2848.844986850692
 30
0.0
 11
6848.33627658934
 21
2251.344986850693
 31
0.0
  0
LINE
  5
1AB2
330
1F
100
AcDbEntity
  8
隠れ線
100
AcDbLine
 10
6785.53627658934
 20
2848.844986850692
 30
0.0
 11
6785.53627658934
 21
2251.344986850693
 31
0.0
  0
LINE
  5
1AB3
330
1F
100
AcDbEntity
  8
外形線
100
AcDbLine
 10
6784.33627658934
 20
2848.844986850692
 30
0.0
 11
6784.33627658934
 21
2251.344986850693
 31
0.0
  0
CIRCLE
  5
1AB5
330
1F
100
AcDbEntity
  8
隠れ線
100
AcDbCircle
 10
6838.336276589339
 20
2266.344986850692
 30
0.0
 40
2.5
  0
LINE
  5
1AB6
330
1F
100
AcDbEntity
  8
外形線
100
AcDbLine
 10
6848.33627658934
 20
2251.344986850693
 30
0.0
 11
6784.33627658934
 21
2251.344986850693
 31
0.0
  0
LINE
  5
1AB7
330
1F
100
AcDbEntity
  8
外形線
100
AcDbLine
 10
6848.33627658934
 20
2848.844986850692
 30
0.0
 11
6784.33627658934
 21
2848.844986850692
 31
0.0
  0
CIRCLE
  5
1AB9
330
1F
100
AcDbEntity
  8
隠れ線
100
AcDbCircle
 10
6858.33627658934
 20
2266.344986850692
 30
0.0
 40
2.5
  0
CIRCLE
  5
1ABA
330
1F
100
AcDbEntity
  8
隠れ線
100
AcDbCircle
 10
6838.336276589339
 20
2266.344986850692
 30
0.0
 40
2.5
  0
CIRCLE
  5
1ABC
330
1F
100
AcDbEntity
  8
隠れ線
100
AcDbCircle
 10
6838.336276895564
 20
2266.344991222531
 30
0.0
 40
2.5
  0
LINE
  5
1ABE
330
1F
100
AcDbEntity
  8
外形線
100
AcDbLine
 10
6868.913537163691
 20
2251.344986850693
 30
0.0
 11
6883.913537163687
 21
2251.344986850693
 31
0.0
  0
LINE
  5
1ABF
330
1F
100
AcDbEntity
  8
外形線
100
AcDbLine
 10
6827.759016014987
 20
2251.344986850693
 30
0.0
 11
6812.759016014988
 21
2251.344986850693
 31
0.0
  0
CIRCLE
  5
1AC1
330
1F
100
AcDbEntity
  8
隠れ線
100
AcDbCircle
 10
6858.33627658934
 20
2266.344986850692
 30
0.0
 40
2.5
  0
LINE
  5
1AC2
330
1F
100
AcDbEntity
  8
隠れ線
100
AcDbLine
 10
6868.33627658934
 20
2251.344986850693
 30
0.0
 11
6828.33627658934
 21
2251.344986850693
 31
0.0
  0
LINE
  5
1AC8
330
1F
100
AcDbEntity
  8
隠れ線
100
AcDbLine
 10
6827.759016014987
 20
2251.344986850693
 30
0.0
 11
6812.759016014988
 21
2251.344986850693
 31
0.0
  0
LINE
  5
1AC9
330
1F
100
AcDbEntity
  8
隠れ線
100
AcDbLine
 10
6868.913537163688
 20
2251.344986850693
 30
0.0
 11
6883.913537163687
 21
2251.344986850693
 31
0.0
  0
CIRCLE
  5
1ACA
330
1F
100
AcDbEntity
  8
外形線
100
AcDbCircle
 10
6858.416276589342
 20
2825.844986850692
 30
0.0
 40
8.0
  0
LINE
  5
1ACB
330
1F
100
AcDbEntity
  8
外形線
100
AcDbLine
 10
6848.33627658934
 20
2251.344986850693
 30
0.0
 11
6912.33627658934
 21
2251.344986850693
 31
0.0
  0
LINE
  5
1ACC
330
1F
100
AcDbEntity
  8
外形線
100
AcDbLine
 10
6848.33627658934
 20
2251.344986850693
 30
0.0
 11
6784.336276895563
 21
2251.344991222532
 31
0.0
  0
LINE
  5
1ACD
330
1F
100
AcDbEntity
  8
隠れ線
100
AcDbLine
 10
6868.416276589343
 20
2837.844986850696
 30
0.0
 11
6909.666276589341
 21
2837.844986850696
 31
0.0
  0
LINE
  5
1ACE
330
1F
100
AcDbEntity
  8
隠れ線
100
AcDbLine
 10
6909.666276589341
 20
2837.844986850696
 30
0.0
 11
6909.666276589341
 21
2839.044986850693
 31
0.0
  0
LINE
  5
1ACF
330
1F
100
AcDbEntity
  8
隠れ線
100
AcDbLine
 10
6787.166276589343
 20
2839.844986850692
 30
0.0
 11
6787.166276589343
 21
2837.844986850696
 31
0.0
  0
LINE
  5
1AD0
330
1F
100
AcDbEntity
  8
隠れ線
100
AcDbLine
 10
6787.166276589343
 20
2837.844986850696
 30
0.0
 11
6828.416276589341
 21
2837.844986850696
 31
0.0
  0
CIRCLE
  5
1AD1
330
1F
100
AcDbEntity
  8
隠れ線
100
AcDbCircle
 10
6858.416276589342
 20
2825.844986850692
 30
0.0
 40
3.0
  0
LINE
  5
1AD2
330
1F
100
AcDbEntity
  8
外形線
100
AcDbLine
 10
6429.479330629593
 20
3187.614293954089
 30
0.0
 11
6195.879330629592
 21
3187.614293954089
 31
0.0
  0
LINE
  5
1AD3
330
1F
100
AcDbEntity
  8
外形線
100
AcDbLine
 10
6429.479330629593
 20
3188.814293954092
 30
0.0
 11
6195.879330629592
 21
3188.814293954088
 31
0.0
  0
LINE
  5
1AD4
330
1F
100
AcDbEntity
  8
外形線
100
AcDbLine
 10
6181.679330629592
 20
3174.614293954088
 30
0.0
 11
6181.679330629592
 21
3124.814293954089
 31
0.0
  0
LINE
  5
1AD5
330
1F
100
AcDbEntity
  8
外形線
100
AcDbLine
 10
6182.879330629585
 20
3174.614293954088
 30
0.0
 11
6182.879330629592
 21
3086.514293954087
 31
0.0
  0
LINE
  5
1AD6
330
1F
100
AcDbEntity
  8
外形線
100
AcDbLine
 10
6442.479330629588
 20
3174.614293954088
 30
0.0
 11
6442.479330629591
 21
3124.814293954089
 31
0.0
  0
LINE
  5
1AD7
330
1F
100
AcDbEntity
  8
外形線
100
AcDbLine
 10
6443.679330629596
 20
3174.614293954088
 30
0.0
 11
6443.679330629591
 21
3124.814293954089
 31
0.0
  0
ARC
  5
1AD8
330
1F
100
AcDbEntity
  8
外形線
100
AcDbCircle
 10
6195.879330629592
 20
3174.614293954088
 30
0.0
 40
14.2
100
AcDbArc
 50
90.0
 51
180.0
  0
ARC
  5
1AD9
330
1F
100
AcDbEntity
  8
外形線
100
AcDbCircle
 10
6429.479330629593
 20
3174.614293954088
 30
0.0
 40
14.2
100
AcDbArc
 50
0.0
 51
90.0
  0
ARC
  5
1ADA
330
1F
100
AcDbEntity
  8
外形線
100
AcDbCircle
 10
6429.479330629593
 20
3174.614293954088
 30
0.0
 40
13.0
100
AcDbArc
 50
0.0
 51
90.0
  0
ARC
  5
1ADB
330
1F
100
AcDbEntity
  8
外形線
100
AcDbCircle
 10
6195.879330629592
 20
3174.614293954088
 30
0.0
 40
13.0
100
AcDbArc
 50
90.0
 51
180.0
  0
LINE
  5
1ADC
330
1F
100
AcDbEntity
  8
外形線
100
AcDbLine
 10
6207.379330629592
 20
3062.014293954085
 30
0.0
 11
6417.979330629595
 21
3062.014293954085
 31
0.0
  0
LINE
  5
1ADD
330
1F
100
AcDbEntity
  8
外形線
100
AcDbLine
 10
6442.479330629591
 20
3086.514293954087
 30
0.0
 11
6442.479330629591
 21
3124.814293954089
 31
0.0
  0
LINE
  5
1ADE
330
1F
100
AcDbEntity
  8
外形線
100
AcDbLine
 10
6181.679330629592
 20
3124.814293954089
 30
0.0
 11
6181.679330629592
 21
3086.514293954087
 31
0.0
  0
LINE
  5
1ADF
330
1F
100
AcDbEntity
  8
外形線
100
AcDbLine
 10
6207.379330629592
 20
3060.814293954085
 30
0.0
 11
6417.979330629595
 21
3060.814293954081
 31
0.0
  0
LINE
  5
1AE0
330
1F
100
AcDbEntity
  8
外形線
100
AcDbLine
 10
6443.679330629596
 20
3086.514293954087
 30
0.0
 11
6443.679330629591
 21
3124.814293954089
 31
0.0
  0
ARC
  5
1AE1
330
1F
100
AcDbEntity
  8
外形線
100
AcDbCircle
 10
6207.379330629592
 20
3086.514293954087
 30
0.0
 40
25.7
100
AcDbArc
 50
180.0
 51
270.0
  0
ARC
  5
1AE2
330
1F
100
AcDbEntity
  8
外形線
100
AcDbCircle
 10
6417.979330629595
 20
3086.514293954087
 30
0.0
 40
25.7
100
AcDbArc
 50
270.0
 51
0.0
  0
ARC
  5
1AE3
330
1F
100
AcDbEntity
  8
外形線
100
AcDbCircle
 10
6417.979330629595
 20
3086.514293954087
 30
0.0
 40
24.5
100
AcDbArc
 50
270.0
 51
0.0
  0
ARC
  5
1AE4
330
1F
100
AcDbEntity
  8
外形線
100
AcDbCircle
 10
6207.379330629592
 20
3086.514293954087
 30
0.0
 40
24.5
100
AcDbArc
 50
180.0
 51
270.0
  0
DIMENSION
  5
1AE5
330
1F
100
AcDbEntity
  8
寸法線
100
AcDbDimension
  2
*D34
 10
6622.304513370649
 20
2248.744986850697
 30
0.0
 11
6611.05451337065
 21
2548.544986850699
 31
0.0
 70
    32
 71
     5
 42
599.6000000000021
  3
uchida
100
AcDbAlignedDimension
 13
6442.093377920584
 23
2848.3449868507
 33
0.0
 14
6511.093377920592
 24
2248.744986850697
 34
0.0
 50
90.0
100
AcDbRotatedDimension
1001
ACAD
1000
DSTYLE
1002
{
1070
    40
1040
15.0
1070
   271
1070
     0
1002
}
  0
DIMENSION
  5
1AE6
330
1F
100
AcDbEntity
  8
寸法線
100
AcDbDimension
  2
*D35
 10
6572.625163906647
 20
2248.744986850694
 30
0.0
 11
6558.946186633919
 21
2544.044986850697
 31
0.0
 70
    32
  1
591(天板高さ)
 71
     5
 42
590.6000000000021
  3
uchida
100
AcDbAlignedDimension
 13
6438.84434039153
 23
2839.344986850696
 33
0.0
 14
6511.093377920587
 24
2248.744986850694
 34
0.0
 50
90.0
100
AcDbRotatedDimension
1001
ACAD
1000
DSTYLE
1002
{
1070
    40
1040
15.0
1002
}
  0
LINE
  5
1AEA
330
1F
100
AcDbEntity
  8
外形線
100
AcDbLine
 10
6180.093377920588
 20
2251.3449868507
 30
0.0
 11
6442.093377920588
 21
2251.3449868507
 31
0.0
  0
LINE
  5
1AEB
330
1F
100
AcDbEntity
  8
外形線
100
AcDbLine
 10
6442.093377920588
 20
2848.3449868507
 30
0.0
 11
6180.093377920588
 21
2848.3449868507
 31
0.0
  0
LINE
  5
1AEC
330
1F
100
AcDbEntity
  8
外形線
100
AcDbLine
 10
6180.093377920591
 20
2848.3449868507
 30
0.0
 11
6180.093377920588
 21
2251.3449868507
 31
0.0
  0
LINE
  5
1AED
330
1F
100
AcDbEntity
  8
外形線
100
AcDbLine
 10
6442.093377920591
 20
2848.3449868507
 30
0.0
 11
6442.093377920588
 21
2251.3449868507
 31
0.0
  0
LINE
  5
1AF2
330
1F
100
AcDbEntity
  8
外形線
100
AcDbLine
 10
6180.093377920588
 20
2251.3449868507
 30
0.0
 11
6442.093377920588
 21
2251.3449868507
 31
0.0
  0
LINE
  5
1AF7
330
1F
100
AcDbEntity
  8
隠れ線
 62
   150
390
F
100
AcDbLine
 10
6406.592415449646
 20
2835.744986850694
 30
0.0
 11
6326.592415449646
 21
2835.744986850694
 31
0.0
  0
LINE
  5
1AF8
330
1F
100
AcDbEntity
  8
隠れ線
100
AcDbLine
 10
6406.592415449646
 20
2837.344986850693
 30
0.0
 11
6326.592415449646
 21
2837.344986850693
 31
0.0
  0
LINE
  5
1AF9
330
1F
100
AcDbEntity
  8
隠れ線
100
AcDbLine
 10
6216.592415449646
 20
2835.744986850694
 30
0.0
 11
6296.592415449646
 21
2835.744986850694
 31
0.0
  0
LINE
  5
1AFA
330
1F
100
AcDbEntity
  8
隠れ線
100
AcDbLine
 10
6232.592415449646
 20
2835.744986850694
 30
0.0
 11
6350.592415449646
 21
2835.744986850694
 31
0.0
  0
LINE
  5
1AFB
330
1F
100
AcDbEntity
  8
隠れ線
100
AcDbLine
 10
6234.59241544965
 20
2807.344986850692
 30
0.0
 11
6348.592415449646
 21
2807.344986850692
 31
0.0
  0
ARC
  5
1AFC
330
1F
100
AcDbEntity
  8
隠れ線
100
AcDbCircle
 10
6348.592415449646
 20
2809.344986850693
 30
0.0
 40
2.0
100
AcDbArc
 50
270.0
 51
0.0
  0
LINE
  5
1AFD
330
1F
100
AcDbEntity
  8
隠れ線
100
AcDbLine
 10
6350.592415449646
 20
2809.344986850693
 30
0.0
 11
6350.592415449646
 21
2837.344986850693
 31
0.0
  0
LINE
  5
1AFE
330
1F
100
AcDbEntity
  8
隠れ線
100
AcDbLine
 10
6350.592415449646
 20
2837.344986850693
 30
0.0
 11
6216.592415449646
 21
2837.344986850693
 31
0.0
  0
LINE
  5
1AFF
330
1F
100
AcDbEntity
  8
隠れ線
100
AcDbLine
 10
6232.592415449646
 20
2837.344986850693
 30
0.0
 11
6232.59241544965
 21
2809.344986850696
 31
0.0
  0
ARC
  5
1B00
330
1F
100
AcDbEntity
  8
隠れ線
100
AcDbCircle
 10
6234.59241544965
 20
2809.344986850696
 30
0.0
 40
2.0
100
AcDbArc
 50
180.0
 51
270.0
  0
LINE
  5
1B02
330
1F
100
AcDbEntity
  8
外形線
100
AcDbLine
 10
6180.093377920588
 20
2251.3449868507
 30
0.0
 11
6442.093377920588
 21
2251.3449868507
 31
0.0
  0
LINE
  5
1B03
330
1F
100
AcDbEntity
  8
隠れ線
100
AcDbLine
 10
6216.592415449646
 20
2835.744986850694
 30
0.0
 11
6296.592415449646
 21
2835.744986850694
 31
0.0
  0
LINE
  5
1B04
330
1F
100
AcDbEntity
  8
隠れ線
100
AcDbLine
 10
6326.592415449646
 20
2835.744986850694
 30
0.0
 11
6406.592415449646
 21
2835.744986850694
 31
0.0
  0
LINE
  5
1B05
330
1F
100
AcDbEntity
  8
隠れ線
 62
   150
390
F
100
AcDbLine
 10
6216.592415449646
 20
2837.344986850693
 30
0.0
 11
6216.592415449646
 21
2837.344986850693
 31
0.0
  0
LINE
  5
1B06
330
1F
100
AcDbEntity
  8
隠れ線
100
AcDbLine
 10
6216.592415449646
 20
2837.344986850693
 30
0.0
 11
6216.592415449646
 21
2809.344986850693
 31
0.0
  0
LINE
  5
1B07
330
1F
100
AcDbEntity
  8
隠れ線
100
AcDbLine
 10
6218.592415449646
 20
2807.344986850692
 30
0.0
 11
6404.592415449646
 21
2807.344986850692
 31
0.0
  0
LINE
  5
1B08
330
1F
100
AcDbEntity
  8
隠れ線
100
AcDbLine
 10
6406.592415449646
 20
2809.344986850693
 30
0.0
 11
6406.592415449646
 21
2837.344986850693
 31
0.0
  0
LINE
  5
1B09
330
1F
100
AcDbEntity
  8
隠れ線
100
AcDbLine
 10
6406.592415449646
 20
2837.344986850693
 30
0.0
 11
6326.592415449646
 21
2837.344986850693
 31
0.0
  0
ARC
  5
1B0A
330
1F
100
AcDbEntity
  8
隠れ線
100
AcDbCircle
 10
6218.592415449646
 20
2809.344986850693
 30
0.0
 40
2.0
100
AcDbArc
 50
180.0
 51
270.0
  0
ARC
  5
1B0B
330
1F
100
AcDbEntity
  8
隠れ線
100
AcDbCircle
 10
6404.592415449646
 20
2809.344986850693
 30
0.0
 40
2.0
100
AcDbArc
 50
270.0
 51
0.0
  0
LINE
  5
1B0F
330
1F
100
AcDbEntity
  8
隠れ線
100
AcDbLine
 10
6825.416276589341
 20
2251.344986850689
 30
0.0
 11
6871.416276589345
 21
2251.344986850693
 31
0.0
  0
ARC
  5
1B10
330
1F
100
AcDbEntity
  8
隠れ線
100
AcDbCircle
 10
6856.511630944274
 20
2825.839661694821
 30
0.0
 40
3.0
100
AcDbArc
 50
87.17133750558584
 51
270.2291828125283
  0
LINE
  5
1B11
330
1F
100
AcDbEntity
  8
隠れ線
100
AcDbLine
 10
6860.523598896401
 20
2822.855685630724
 30
0.0
 11
6856.523630896274
 21
2822.839685694724
 31
0.0
  0
ARC
  5
1B12
330
1F
100
AcDbEntity
  8
隠れ線
100
AcDbCircle
 10
6860.511598944398
 20
2825.855661630825
 30
0.0
 40
3.0
100
AcDbArc
 50
270.2291828125283
 51
90.35665010767285
  0
ARC
  5
1B13
330
1F
100
AcDbEntity
  8
隠れ線
100
AcDbCircle
 10
6856.511630944273
 20
2825.839661694821
 30
0.0
 40
3.0
100
AcDbArc
 50
87.17133750558584
 51
270.2291828125283
  0
LINE
  5
1B14
330
1F
100
AcDbEntity
  8
隠れ線
100
AcDbLine
 10
6860.499598992404
 20
2828.855637630919
 30
0.0
 11
6856.332954186284
 21
2828.834336070466
 31
0.0
  0
LINE
  5
1B15
330
1F
100
AcDbEntity
  8
隠れ線
100
AcDbLine
 10
6860.523598896401
 20
2822.855685630724
 30
0.0
 11
6856.523630896274
 21
2822.839685694728
 31
0.0
  0
CIRCLE
  5
1B16
330
1F
100
AcDbEntity
  8
隠れ線
100
AcDbCircle
 10
6838.336276895564
 20
2266.344991222531
 30
0.0
 40
2.5
  0
CIRCLE
  5
1B17
330
1F
100
AcDbEntity
  8
外形線
100
AcDbCircle
 10
6858.336288485978
 20
2266.344996868289
 30
0.0
 40
8.5
  0
CIRCLE
  5
1B18
330
1F
100
AcDbEntity
  8
外形線
100
AcDbCircle
 10
6838.336264692701
 20
2266.344996868289
 30
0.0
 40
8.5
  0
LINE
  5
1B1E
330
1F
100
AcDbEntity
  8
隠れ線
100
AcDbLine
 10
6868.416276589343
 20
2837.844986850692
 30
0.0
 11
6909.666276589341
 21
2837.844986850692
 31
0.0
  0
LINE
  5
1B1F
330
1F
100
AcDbEntity
  8
隠れ線
100
AcDbLine
 10
6909.666276589341
 20
2837.844986850692
 30
0.0
 11
6909.666276589341
 21
2839.844986850692
 31
0.0
  0
LINE
  5
1B20
330
1F
100
AcDbEntity
  8
隠れ線
100
AcDbLine
 10
6909.666276589341
 20
2839.844986850692
 30
0.0
 11
6787.166276589343
 21
2839.844986850692
 31
0.0
  0
LINE
  5
1B21
330
1F
100
AcDbEntity
  8
隠れ線
100
AcDbLine
 10
6787.166276589343
 20
2839.844986850692
 30
0.0
 11
6787.166276589343
 21
2837.844986850692
 31
0.0
  0
LINE
  5
1B22
330
1F
100
AcDbEntity
  8
隠れ線
100
AcDbLine
 10
6787.166276589343
 20
2837.844986850692
 30
0.0
 11
6828.416276589341
 21
2837.844986850692
 31
0.0
  0
CIRCLE
  5
1B23
330
1F
100
AcDbEntity
  8
隠れ線
100
AcDbCircle
 10
6858.416276589342
 20
2825.844986850692
 30
0.0
 40
3.0
  0
LINE
  5
1B24
330
1F
100
AcDbEntity
  8
隠れ線
100
AcDbLine
 10
6828.416276589341
 20
2837.844986850696
 30
0.0
 11
6828.416276589341
 21
2817.844986850693
 31
0.0
  0
ARC
  5
1B25
330
1F
100
AcDbEntity
  8
隠れ線
100
AcDbCircle
 10
6830.416276589343
 20
2817.844986850693
 30
0.0
 40
2.0
100
AcDbArc
 50
180.0
 51
270.0
  0
LINE
  5
1B26
330
1F
100
AcDbEntity
  8
隠れ線
100
AcDbLine
 10
6830.416276589343
 20
2815.844986850692
 30
0.0
 11
6866.416276589342
 21
2815.844986850692
 31
0.0
  0
ARC
  5
1B27
330
1F
100
AcDbEntity
  8
隠れ線
100
AcDbCircle
 10
6866.416276589342
 20
2817.844986850693
 30
0.0
 40
2.0
100
AcDbArc
 50
270.0
 51
0.0
  0
LINE
  5
1B28
330
1F
100
AcDbEntity
  8
隠れ線
100
AcDbLine
 10
6868.416276589343
 20
2817.844986850693
 30
0.0
 11
6868.416276589343
 21
2837.844986850696
 31
0.0
  0
LINE
  5
1B2E
330
1F
100
AcDbEntity
  8
外形線
  6
Continuous
 62
     7
100
AcDbLine
 10
6207.429330629595
 20
3063.514293954087
 30
0.0
 11
6367.929330629595
 21
3063.514293954087
 31
0.0
  0
LINE
  5
1B2F
330
1F
100
AcDbEntity
  8
外形線
  6
Continuous
 62
     7
100
AcDbLine
 10
6440.929330629595
 20
3086.514293954087
 30
0.0
 11
6440.929330629595
 21
3097.264293954087
 31
0.0
  0
ARC
  5
1B30
330
1F
100
AcDbEntity
  8
外形線
  6
Continuous
 62
     7
100
AcDbCircle
 10
6417.929330629593
 20
3086.514293954087
 30
0.0
 40
23.0
100
AcDbArc
 50
270.0
 51
0.0
  0
ARC
  5
1B31
330
1F
100
AcDbEntity
  8
外形線
  6
Continuous
 62
     7
100
AcDbCircle
 10
6207.429330629595
 20
3086.514293954087
 30
0.0
 40
22.99999999999999
100
AcDbArc
 50
180.0
 51
270.0
  0
LINE
  5
1B32
330
1F
100
AcDbEntity
  8
外形線
  6
Continuous
 62
     7
100
AcDbLine
 10
6429.429330629595
 20
3186.014293954086
 30
0.0
 11
6427.229330629595
 21
3186.014293954086
 31
0.0
  0
LINE
  5
1B33
330
1F
100
AcDbEntity
  8
外形線
  6
Continuous
 62
     7
100
AcDbLine
 10
6184.429330629595
 20
3174.514293954087
 30
0.0
 11
6184.429330629595
 21
3152.264293954087
 31
0.0
  0
ARC
  5
1B34
330
1F
100
AcDbEntity
  8
外形線
  6
Continuous
 62
     7
100
AcDbCircle
 10
6195.929330629595
 20
3174.514293954087
 30
0.0
 40
11.50000000000001
100
AcDbArc
 50
90.0
 51
180.0
  0
ARC
  5
1B35
330
1F
100
AcDbEntity
  8
外形線
  6
Continuous
 62
     7
100
AcDbCircle
 10
6429.429330629595
 20
3174.514293954087
 30
0.0
 40
11.5
100
AcDbArc
 50
0.0
 51
90.0
  0
ARC
  5
1B36
330
1F
100
AcDbEntity
  8
外形線
  6
Continuous
 62
     7
100
AcDbCircle
 10
6203.429330629595
 20
3161.814293954085
 30
0.0
 40
5.000000000000004
100
AcDbArc
 50
0.0
 51
180.0
  0
LINE
  5
1B37
330
1F
100
AcDbEntity
  8
外形線
  6
Continuous
 62
     7
100
AcDbLine
 10
6208.429330629595
 20
3161.814293954085
 30
0.0
 11
6208.429330629595
 21
3158.514293954087
 31
0.0
  0
ARC
  5
1B38
330
1F
100
AcDbEntity
  8
外形線
  6
Continuous
 62
     7
100
AcDbCircle
 10
6304.229330629596
 20
3144.314293954085
 30
0.0
 40
8.99999999999998
100
AcDbArc
 50
180.0
 51
0.0
  0
LINE
  5
1B39
330
1F
100
AcDbEntity
  8
外形線
  6
Continuous
 62
     7
100
AcDbLine
 10
6295.229330629593
 20
3144.314293954085
 30
0.0
 11
6295.229330629593
 21
3167.014293954087
 31
0.0
  0
LINE
  5
1B3A
330
1F
100
AcDbEntity
  8
外形線
  6
Continuous
 62
     7
100
AcDbLine
 10
6336.729330629593
 20
3160.514293954087
 30
0.0
 11
6318.229330629595
 21
3160.514293954087
 31
0.0
  0
LINE
  5
1B3B
330
1F
100
AcDbEntity
  8
外形線
  6
Continuous
 62
     7
100
AcDbLine
 10
6313.229330629593
 20
3155.514293954087
 30
0.0
 11
6313.229330629593
 21
3144.314293954085
 31
0.0
  0
LINE
  5
1B3C
330
1F
100
AcDbEntity
  8
外形線
  6
Continuous
 62
     7
100
AcDbLine
 10
6268.229330629593
 20
3186.014293954086
 30
0.0
 11
6232.229330629593
 21
3186.014293954086
 31
0.0
  0
LINE
  5
1B3D
330
1F
100
AcDbEntity
  8
外形線
  6
Continuous
 62
     7
100
AcDbLine
 10
6341.729330629593
 20
3181.014293954087
 30
0.0
 11
6341.729330629593
 21
3165.514293954087
 31
0.0
  0
ARC
  5
1B3E
330
1F
100
AcDbEntity
  8
外形線
  6
Continuous
 62
     7
100
AcDbCircle
 10
6346.729330629593
 20
3181.014293954087
 30
0.0
 40
4.99999999999999
100
AcDbArc
 50
90.0
 51
180.0
  0
ARC
  5
1B3F
330
1F
100
AcDbEntity
  8
外形線
  6
Continuous
 62
     7
100
AcDbCircle
 10
6318.229330629595
 20
3155.514293954087
 30
0.0
 40
4.99999999999999
100
AcDbArc
 50
90.0
 51
180.0
  0
ARC
  5
1B40
330
1F
100
AcDbEntity
  8
外形線
  6
Continuous
 62
     7
100
AcDbCircle
 10
6336.729330629593
 20
3165.514293954087
 30
0.0
 40
5.000000000000004
100
AcDbArc
 50
270.0
 51
0.0
  0
LINE
  5
1B41
330
1F
100
AcDbEntity
  8
外形線
  6
Continuous
 62
     7
100
AcDbLine
 10
6415.729330629594
 20
3096.514293954087
 30
0.0
 11
6425.729330629595
 21
3096.514293954087
 31
0.0
  0
LINE
  5
1B42
330
1F
100
AcDbEntity
  8
外形線
  6
Continuous
 62
     7
100
AcDbLine
 10
6427.729330629595
 20
3094.514293954087
 30
0.0
 11
6427.729330629595
 21
3071.514293954086
 31
0.0
  0
LINE
  5
1B43
330
1F
100
AcDbEntity
  8
外形線
  6
Continuous
 62
     7
100
AcDbLine
 10
6425.729330629595
 20
3069.514293954087
 30
0.0
 11
6415.729330629594
 21
3069.514293954087
 31
0.0
  0
LINE
  5
1B44
330
1F
100
AcDbEntity
  8
外形線
  6
Continuous
 62
     7
100
AcDbLine
 10
6413.729330629593
 20
3071.514293954086
 30
0.0
 11
6413.729330629593
 21
3094.514293954087
 31
0.0
  0
LINE
  5
1B45
330
1F
100
AcDbEntity
  8
外形線
  6
Continuous
 62
     7
100
AcDbLine
 10
6331.229330629593
 20
3089.514293954087
 30
0.0
 11
6331.229330629593
 21
3116.514293954086
 31
0.0
  0
LINE
  5
1B46
330
1F
100
AcDbEntity
  8
外形線
  6
Continuous
 62
     7
100
AcDbLine
 10
6329.229330629593
 20
3118.514293954087
 30
0.0
 11
6299.229330629593
 21
3118.514293954087
 31
0.0
  0
LINE
  5
1B47
330
1F
100
AcDbEntity
  8
外形線
  6
Continuous
 62
     7
100
AcDbLine
 10
6197.229330629593
 20
3071.514293954086
 30
0.0
 11
6197.229330629593
 21
3109.514293954087
 31
0.0
  0
LINE
  5
1B48
330
1F
100
AcDbEntity
  8
外形線
  6
Continuous
 62
     7
100
AcDbLine
 10
6209.229330629593
 20
3069.514293954087
 30
0.0
 11
6199.229330629593
 21
3069.514293954087
 31
0.0
  0
LINE
  5
1B49
330
1F
100
AcDbEntity
  8
外形線
  6
Continuous
 62
     7
100
AcDbLine
 10
6200.229330629595
 20
3184.014293954087
 30
0.0
 11
6200.229330629595
 21
3176.514293954087
 31
0.0
  0
LINE
  5
1B4A
330
1F
100
AcDbEntity
  8
外形線
  6
Continuous
 62
     7
100
AcDbLine
 10
6198.229330629594
 20
3186.014293954086
 30
0.0
 11
6195.929330629595
 21
3186.014293954086
 31
0.0
  0
LINE
  5
1B4B
330
1F
100
AcDbEntity
  8
外形線
  6
Continuous
 62
     7
100
AcDbLine
 10
6393.229330629593
 20
3186.014293954086
 30
0.0
 11
6346.729330629593
 21
3186.014293954086
 31
0.0
  0
LINE
  5
1B4C
330
1F
100
AcDbEntity
  8
外形線
  6
Continuous
 62
     7
100
AcDbLine
 10
6395.229330629593
 20
3184.014293954087
 30
0.0
 11
6395.229330629593
 21
3176.514293954087
 31
0.0
  0
LINE
  5
1B4D
330
1F
100
AcDbEntity
  8
外形線
  6
Continuous
 62
     7
100
AcDbLine
 10
6397.229330629595
 20
3174.514293954087
 30
0.0
 11
6397.739334632795
 21
3174.514293954087
 31
0.0
  0
LINE
  5
1B4E
330
1F
100
AcDbEntity
  8
外形線
  6
Continuous
 62
     7
100
AcDbLine
 10
6425.229330629594
 20
3176.514293954087
 30
0.0
 11
6425.229330629594
 21
3184.014293954087
 31
0.0
  0
LINE
  5
1B4F
330
1F
100
AcDbEntity
  8
外形線
  6
Continuous
 62
     7
100
AcDbLine
 10
6202.229330629593
 20
3174.514293954087
 30
0.0
 11
6202.739334632795
 21
3174.514293954087
 31
0.0
  0
LINE
  5
1B50
330
1F
100
AcDbEntity
  8
外形線
  6
Continuous
 62
     7
100
AcDbLine
 10
6230.229330629594
 20
3176.514293954087
 30
0.0
 11
6230.229330629594
 21
3184.014293954087
 31
0.0
  0
LINE
  5
1B51
330
1F
100
AcDbEntity
  8
外形線
  6
Continuous
 62
     7
100
AcDbLine
 10
6385.929330629595
 20
3178.514293954087
 30
0.0
 11
6350.929330629595
 21
3178.514293954087
 31
0.0
  0
LINE
  5
1B52
330
1F
100
AcDbEntity
  8
外形線
  6
Continuous
 62
     7
100
AcDbLine
 10
6348.929330629593
 20
3176.514293954087
 30
0.0
 11
6348.929330629593
 21
3149.014293954087
 31
0.0
  0
LINE
  5
1B53
330
1F
100
AcDbEntity
  8
外形線
  6
Continuous
 62
     7
100
AcDbLine
 10
6350.929330629595
 20
3147.014293954087
 30
0.0
 11
6394.929330629595
 21
3147.014293954087
 31
0.0
  0
LINE
  5
1B54
330
1F
100
AcDbEntity
  8
外形線
  6
Continuous
 62
     7
100
AcDbLine
 10
6396.929330629595
 20
3149.014293954087
 30
0.0
 11
6396.929330629595
 21
3165.514293954087
 31
0.0
  0
LINE
  5
1B55
330
1F
100
AcDbEntity
  8
外形線
  6
Continuous
 62
     7
100
AcDbLine
 10
6394.929330629595
 20
3167.514293954087
 30
0.0
 11
6389.929330629595
 21
3167.514293954087
 31
0.0
  0
LINE
  5
1B56
330
1F
100
AcDbEntity
  8
外形線
  6
Continuous
 62
     7
100
AcDbLine
 10
6387.929330629595
 20
3169.514293954087
 30
0.0
 11
6387.929330629595
 21
3176.514293954087
 31
0.0
  0
ARC
  5
1B57
330
1F
100
AcDbEntity
  8
外形線
  6
Continuous
 62
     7
100
AcDbCircle
 10
6427.229330629595
 20
3184.014293954087
 30
0.0
 40
2.000000000000005
100
AcDbArc
 50
90.0
 51
180.0
  0
ARC
  5
1B58
330
1F
100
AcDbEntity
  8
外形線
  6
Continuous
 62
     7
100
AcDbCircle
 10
6393.229330629593
 20
3184.014293954087
 30
0.0
 40
2.000000000000002
100
AcDbArc
 50
0.0
 51
90.0
  0
ARC
  5
1B59
330
1F
100
AcDbEntity
  8
外形線
  6
Continuous
 62
     7
100
AcDbCircle
 10
6389.929330629595
 20
3169.514293954087
 30
0.0
 40
2.000000000000002
100
AcDbArc
 50
180.0
 51
270.0
  0
ARC
  5
1B5A
330
1F
100
AcDbEntity
  8
外形線
  6
Continuous
 62
     7
100
AcDbCircle
 10
6232.229330629593
 20
3184.014293954087
 30
0.0
 40
2.000000000000002
100
AcDbArc
 50
90.0
 51
180.0
  0
ARC
  5
1B5B
330
1F
100
AcDbEntity
  8
外形線
  6
Continuous
 62
     7
100
AcDbCircle
 10
6198.229330629594
 20
3184.014293954087
 30
0.0
 40
2.000000000000002
100
AcDbArc
 50
0.0
 51
90.0
  0
ARC
  5
1B5C
330
1F
100
AcDbEntity
  8
外形線
  6
Continuous
 62
     7
100
AcDbCircle
 10
6425.729330629595
 20
3094.514293954087
 30
0.0
 40
2.000000000000003
100
AcDbArc
 50
0.0
 51
90.0
  0
ARC
  5
1B5D
330
1F
100
AcDbEntity
  8
外形線
  6
Continuous
 62
     7
100
AcDbCircle
 10
6425.729330629595
 20
3071.514293954086
 30
0.0
 40
2.000000000000002
100
AcDbArc
 50
270.0
 51
0.0
  0
ARC
  5
1B5E
330
1F
100
AcDbEntity
  8
外形線
  6
Continuous
 62
     7
100
AcDbCircle
 10
6415.729330629594
 20
3071.514293954086
 30
0.0
 40
2.000000000000007
100
AcDbArc
 50
180.0
 51
270.0
  0
ARC
  5
1B5F
330
1F
100
AcDbEntity
  8
外形線
  6
Continuous
 62
     7
100
AcDbCircle
 10
6415.729330629594
 20
3094.514293954087
 30
0.0
 40
2.000000000000002
100
AcDbArc
 50
90.0
 51
180.0
  0
ARC
  5
1B60
330
1F
100
AcDbEntity
  8
外形線
  6
Continuous
 62
     7
100
AcDbCircle
 10
6329.229330629593
 20
3089.514293954087
 30
0.0
 40
2.000000000000002
100
AcDbArc
 50
270.0
 51
0.0
  0
ARC
  5
1B61
330
1F
100
AcDbEntity
  8
外形線
  6
Continuous
 62
     7
100
AcDbCircle
 10
6329.229330629593
 20
3116.514293954086
 30
0.0
 40
2.000000000000015
100
AcDbArc
 50
0.0
 51
90.0
  0
ARC
  5
1B62
330
1F
100
AcDbEntity
  8
外形線
  6
Continuous
 62
     7
100
AcDbCircle
 10
6209.229330629593
 20
3071.514293954086
 30
0.0
 40
2.0
100
AcDbArc
 50
270.0
 51
0.0
  0
ARC
  5
1B63
330
1F
100
AcDbEntity
  8
外形線
  6
Continuous
 62
     7
100
AcDbCircle
 10
6199.229330629593
 20
3071.514293954086
 30
0.0
 40
2.000000000000002
100
AcDbArc
 50
180.0
 51
270.0
  0
ARC
  5
1B64
330
1F
100
AcDbEntity
  8
外形線
  6
Continuous
 62
     7
100
AcDbCircle
 10
6228.229330629593
 20
3176.514293954087
 30
0.0
 40
2.000000000000002
100
AcDbArc
 50
270.0
 51
0.0
  0
ARC
  5
1B65
330
1F
100
AcDbEntity
  8
外形線
  6
Continuous
 62
     7
100
AcDbCircle
 10
6202.229330629593
 20
3176.514293954087
 30
0.0
 40
2.000000000000002
100
AcDbArc
 50
180.0
 51
270.0
  0
ARC
  5
1B66
330
1F
100
AcDbEntity
  8
外形線
  6
Continuous
 62
     7
100
AcDbCircle
 10
6350.929330629595
 20
3176.514293954087
 30
0.0
 40
2.000000000000002
100
AcDbArc
 50
90.0
 51
180.0
  0
ARC
  5
1B67
330
1F
100
AcDbEntity
  8
外形線
  6
Continuous
 62
     7
100
AcDbCircle
 10
6350.929330629595
 20
3149.014293954087
 30
0.0
 40
2.000000000000002
100
AcDbArc
 50
180.0
 51
270.0
  0
ARC
  5
1B68
330
1F
100
AcDbEntity
  8
外形線
  6
Continuous
 62
     7
100
AcDbCircle
 10
6394.929330629595
 20
3149.014293954087
 30
0.0
 40
2.000000000000002
100
AcDbArc
 50
270.0
 51
0.0
  0
ARC
  5
1B69
330
1F
100
AcDbEntity
  8
外形線
  6
Continuous
 62
     7
100
AcDbCircle
 10
6394.929330629595
 20
3165.514293954087
 30
0.0
 40
2.000000000000015
100
AcDbArc
 50
0.0
 51
90.0
  0
ARC
  5
1B6A
330
1F
100
AcDbEntity
  8
外形線
  6
Continuous
 62
     7
100
AcDbCircle
 10
6385.929330629595
 20
3176.514293954087
 30
0.0
 40
2.000000000000007
100
AcDbArc
 50
0.0
 51
90.0
  0
ARC
  5
1B6B
330
1F
100
AcDbEntity
  8
外形線
  6
Continuous
 62
     7
100
AcDbCircle
 10
6397.229330629595
 20
3176.514293954087
 30
0.0
 40
2.000000000000002
100
AcDbArc
 50
180.0
 51
270.0
  0
ARC
  5
1B6C
330
1F
100
AcDbEntity
  8
外形線
  6
Continuous
 62
     7
100
AcDbCircle
 10
6423.229330629593
 20
3176.514293954087
 30
0.0
 40
2.000000000000002
100
AcDbArc
 50
270.0
 51
0.0
  0
LINE
  5
1B6D
330
1F
100
AcDbEntity
  8
外形線
  6
Continuous
 62
     7
100
AcDbLine
 10
6185.929330629595
 20
3144.764293954087
 30
0.0
 11
6185.929330629595
 21
3150.764293954086
 31
0.0
  0
LINE
  5
1B6E
330
1F
100
AcDbEntity
  8
外形線
  6
Continuous
 62
     7
100
AcDbLine
 10
6439.429330629595
 20
3104.764293954087
 30
0.0
 11
6439.429330629595
 21
3098.764293954087
 31
0.0
  0
LINE
  5
1B6F
330
1F
100
AcDbEntity
  8
外形線
  6
Continuous
 62
     7
100
AcDbLine
 10
6439.429330629595
 20
3150.764293954086
 30
0.0
 11
6439.429330629595
 21
3144.764293954087
 31
0.0
  0
LINE
  5
1B70
330
1F
100
AcDbEntity
  8
外形線
  6
Continuous
 62
     7
100
AcDbLine
 10
6439.429330629595
 20
3144.764293954087
 30
0.0
 11
6439.727330629594
 21
3144.764293954087
 31
0.0
  0
LINE
  5
1B71
330
1F
100
AcDbEntity
  8
外形線
  6
Continuous
 62
     7
100
AcDbLine
 10
6185.929330629595
 20
3098.764293954087
 30
0.0
 11
6185.929330629595
 21
3104.764293954087
 31
0.0
  0
LINE
  5
1B72
330
1F
100
AcDbEntity
  8
外形線
  6
Continuous
 62
     7
100
AcDbLine
 10
6185.929330629595
 20
3104.764293954087
 30
0.0
 11
6185.631330629596
 21
3104.764293954087
 31
0.0
  0
LINE
  5
1B73
330
1F
100
AcDbEntity
  8
外形線
  6
Continuous
 62
     7
100
AcDbLine
 10
6439.727330629594
 20
3104.764293954087
 30
0.0
 11
6439.429330629595
 21
3104.764293954087
 31
0.0
  0
LINE
  5
1B74
330
1F
100
AcDbEntity
  8
外形線
  6
Continuous
 62
     7
100
AcDbLine
 10
6439.727330629594
 20
3144.764293954087
 30
0.0
 11
6439.729330629595
 21
3144.764293954087
 31
0.0
  0
LINE
  5
1B75
330
1F
100
AcDbEntity
  8
外形線
  6
Continuous
 62
     7
100
AcDbLine
 10
6439.729330629595
 20
3104.764293954087
 30
0.0
 11
6439.727330629594
 21
3104.764293954087
 31
0.0
  0
LINE
  5
1B76
330
1F
100
AcDbEntity
  8
外形線
  6
Continuous
 62
     7
100
AcDbLine
 10
6185.631330629596
 20
3144.764293954087
 30
0.0
 11
6185.929330629595
 21
3144.764293954087
 31
0.0
  0
LINE
  5
1B77
330
1F
100
AcDbEntity
  8
外形線
  6
Continuous
 62
     7
100
AcDbLine
 10
6185.631330629596
 20
3104.764293954087
 30
0.0
 11
6185.629330629596
 21
3104.764293954087
 31
0.0
  0
LINE
  5
1B78
330
1F
100
AcDbEntity
  8
外形線
  6
Continuous
 62
     7
100
AcDbLine
 10
6185.629330629596
 20
3144.764293954087
 30
0.0
 11
6185.631330629596
 21
3144.764293954087
 31
0.0
  0
LINE
  5
1B79
330
1F
100
AcDbEntity
  8
外形線
  6
Continuous
 62
     7
100
AcDbLine
 10
6185.629330629596
 20
3142.764293954087
 30
0.0
 11
6185.629330629596
 21
3106.764293954086
 31
0.0
  0
LINE
  5
1B7A
330
1F
100
AcDbEntity
  8
外形線
  6
Continuous
 62
     7
100
AcDbLine
 10
6184.429330629595
 20
3142.764293954087
 30
0.0
 11
6184.429330629595
 21
3106.764293954086
 31
0.0
  0
LINE
  5
1B7B
330
1F
100
AcDbEntity
  8
外形線
  6
Continuous
 62
     7
100
AcDbLine
 10
6185.629330629596
 20
3104.764293954087
 30
0.0
 11
6185.629330629596
 21
3106.764293954086
 31
0.0
  0
LINE
  5
1B7C
330
1F
100
AcDbEntity
  8
外形線
  6
Continuous
 62
     7
100
AcDbLine
 10
6185.629330629596
 20
3142.764293954087
 30
0.0
 11
6185.629330629596
 21
3144.764293954087
 31
0.0
  0
LINE
  5
1B7D
330
1F
100
AcDbEntity
  8
外形線
  6
Continuous
 62
     7
100
AcDbLine
 10
6185.629330629596
 20
3144.764293954087
 30
0.0
 11
6184.429330629595
 21
3144.764293954087
 31
0.0
  0
LINE
  5
1B7E
330
1F
100
AcDbEntity
  8
外形線
  6
Continuous
 62
     7
100
AcDbLine
 10
6184.429330629595
 20
3106.764293954086
 30
0.0
 11
6184.429330629595
 21
3104.764293954087
 31
0.0
  0
LINE
  5
1B7F
330
1F
100
AcDbEntity
  8
外形線
  6
Continuous
 62
     7
100
AcDbLine
 10
6184.429330629595
 20
3144.764293954087
 30
0.0
 11
6184.429330629595
 21
3142.764293954087
 31
0.0
  0
LINE
  5
1B80
330
1F
100
AcDbEntity
  8
外形線
  6
Continuous
 62
     7
100
AcDbLine
 10
6184.429330629595
 20
3104.764293954087
 30
0.0
 11
6185.629330629596
 21
3104.764293954087
 31
0.0
  0
LINE
  5
1B81
330
1F
100
AcDbEntity
  8
外形線
  6
Continuous
 62
     7
100
AcDbLine
 10
6440.929330629595
 20
3144.764293954087
 30
0.0
 11
6439.729330629595
 21
3144.764293954087
 31
0.0
  0
LINE
  5
1B82
330
1F
100
AcDbEntity
  8
外形線
  6
Continuous
 62
     7
100
AcDbLine
 10
6439.729330629595
 20
3106.764293954086
 30
0.0
 11
6439.729330629595
 21
3142.764293954087
 31
0.0
  0
LINE
  5
1B83
330
1F
100
AcDbEntity
  8
外形線
  6
Continuous
 62
     7
100
AcDbLine
 10
6439.729330629595
 20
3106.764293954086
 30
0.0
 11
6439.729330629595
 21
3104.764293954087
 31
0.0
  0
LINE
  5
1B84
330
1F
100
AcDbEntity
  8
外形線
  6
Continuous
 62
     7
100
AcDbLine
 10
6439.729330629595
 20
3144.764293954087
 30
0.0
 11
6439.729330629595
 21
3142.764293954087
 31
0.0
  0
LINE
  5
1B85
330
1F
100
AcDbEntity
  8
外形線
  6
Continuous
 62
     7
100
AcDbLine
 10
6440.929330629595
 20
3106.764293954086
 30
0.0
 11
6440.929330629595
 21
3142.764293954087
 31
0.0
  0
LINE
  5
1B86
330
1F
100
AcDbEntity
  8
外形線
  6
Continuous
 62
     7
100
AcDbLine
 10
6440.929330629595
 20
3104.764293954087
 30
0.0
 11
6440.929330629595
 21
3106.764293954086
 31
0.0
  0
LINE
  5
1B87
330
1F
100
AcDbEntity
  8
外形線
  6
Continuous
 62
     7
100
AcDbLine
 10
6440.929330629595
 20
3142.764293954087
 30
0.0
 11
6440.929330629595
 21
3144.764293954087
 31
0.0
  0
LINE
  5
1B88
330
1F
100
AcDbEntity
  8
外形線
  6
Continuous
 62
     7
100
AcDbLine
 10
6439.729330629595
 20
3104.764293954087
 30
0.0
 11
6440.929330629595
 21
3104.764293954087
 31
0.0
  0
LINE
  5
1B89
330
1F
100
AcDbEntity
  8
外形線
  6
Continuous
 62
     7
100
AcDbLine
 10
6440.929330629595
 20
3152.264293954087
 30
0.0
 11
6440.929330629595
 21
3174.514293954087
 31
0.0
  0
LINE
  5
1B8A
330
1F
100
AcDbEntity
  8
外形線
  6
Continuous
 62
     7
100
AcDbLine
 10
6184.429330629595
 20
3097.264293954087
 30
0.0
 11
6184.429330629595
 21
3086.514293954087
 31
0.0
  0
ARC
  5
1B8B
330
1F
100
AcDbEntity
  8
外形線
  6
Continuous
 62
     7
100
AcDbCircle
 10
6185.929330629595
 20
3152.264293954087
 30
0.0
 40
1.5
100
AcDbArc
 50
180.0
 51
270.0
  0
ARC
  5
1B8C
330
1F
100
AcDbEntity
  8
外形線
  6
Continuous
 62
     7
100
AcDbCircle
 10
6185.929330629595
 20
3097.264293954087
 30
0.0
 40
1.5
100
AcDbArc
 50
90.0
 51
180.0
  0
ARC
  5
1B8D
330
1F
100
AcDbEntity
  8
外形線
  6
Continuous
 62
     7
100
AcDbCircle
 10
6439.429330629595
 20
3152.264293954087
 30
0.0
 40
1.5
100
AcDbArc
 50
270.0
 51
0.0
  0
ARC
  5
1B8E
330
1F
100
AcDbEntity
  8
外形線
  6
Continuous
 62
     7
100
AcDbCircle
 10
6439.429330629595
 20
3097.264293954087
 30
0.0
 40
1.5
100
AcDbArc
 50
0.0
 51
90.0
  0
LINE
  5
1B8F
330
1F
100
AcDbEntity
  8
外形線
  6
Continuous
 62
     7
100
AcDbLine
 10
6325.219326626396
 20
3087.514293954086
 30
0.0
 11
6329.229330629593
 21
3087.514293954086
 31
0.0
  0
ARC
  5
1B90
330
1F
100
AcDbEntity
  8
外形線
  6
Continuous
 62
     7
100
AcDbCircle
 10
6312.729330629593
 20
3080.014293954087
 30
0.0
 40
4.499999999999995
100
AcDbArc
 50
182.2924427760055
 51
357.7075572239944
  0
ARC
  5
1B91
330
1F
100
AcDbEntity
  8
外形線
  6
Continuous
 62
     7
100
AcDbCircle
 10
6215.229330629593
 20
3167.014293954087
 30
0.0
 40
4.499999999999995
100
AcDbArc
 50
182.2924427760055
 51
357.7075572239944
  0
LINE
  5
1B92
330
1F
100
AcDbEntity
  8
外形線
  6
Continuous
 62
     7
100
AcDbLine
 10
6227.719326626397
 20
3174.514293954087
 30
0.0
 11
6228.229330629593
 21
3174.514293954087
 31
0.0
  0
ARC
  5
1B93
330
1F
100
AcDbEntity
  8
外形線
  6
Continuous
 62
     7
100
AcDbCircle
 10
6410.229330629594
 20
3167.014293954087
 30
0.0
 40
4.5
100
AcDbArc
 50
182.2924427760055
 51
357.7075572239944
  0
LINE
  5
1B94
330
1F
100
AcDbEntity
  8
外形線
  6
Continuous
 62
     7
100
AcDbLine
 10
6422.719326626396
 20
3174.514293954087
 30
0.0
 11
6423.229330629593
 21
3174.514293954087
 31
0.0
  0
ARC
  5
1B95
330
1F
100
AcDbEntity
  8
外形線
  6
Continuous
 62
     7
100
AcDbCircle
 10
6202.739334632795
 20
3166.514293954087
 30
0.0
 40
7.999999999999992
100
AcDbArc
 50
2.292442776005541
 51
90.0
  0
ARC
  5
1B96
330
1F
100
AcDbEntity
  8
外形線
  6
Continuous
 62
     7
100
AcDbCircle
 10
6227.719326626397
 20
3166.514293954087
 30
0.0
 40
7.999999999999995
100
AcDbArc
 50
90.0
 51
177.7075572239944
  0
ARC
  5
1B97
330
1F
100
AcDbEntity
  8
外形線
  6
Continuous
 62
     7
100
AcDbCircle
 10
6397.739334632795
 20
3166.514293954087
 30
0.0
 40
7.999999999999992
100
AcDbArc
 50
2.292442776005541
 51
90.0
  0
ARC
  5
1B98
330
1F
100
AcDbEntity
  8
外形線
  6
Continuous
 62
     7
100
AcDbCircle
 10
6422.719326626396
 20
3166.514293954087
 30
0.0
 40
8.000000000000001
100
AcDbArc
 50
90.0
 51
177.7075572239944
  0
ARC
  5
1B99
330
1F
100
AcDbEntity
  8
外形線
  6
Continuous
 62
     7
100
AcDbCircle
 10
6300.239334632795
 20
3079.514293954087
 30
0.0
 40
8.0
100
AcDbArc
 50
2.292442776005541
 51
90.0
  0
ARC
  5
1B9A
330
1F
100
AcDbEntity
  8
外形線
  6
Continuous
 62
     7
100
AcDbCircle
 10
6325.219326626396
 20
3079.514293954087
 30
0.0
 40
8.000000000000008
100
AcDbArc
 50
90.0
 51
177.7075572239944
  0
LINE
  5
1B9B
330
1F
100
AcDbEntity
  8
外形線
  6
Continuous
 62
     7
100
AcDbLine
 10
6438.429330629593
 20
3131.114293954084
 30
0.0
 11
6438.429330629593
 21
3138.414293954087
 31
0.0
  0
LINE
  5
1B9C
330
1F
100
AcDbEntity
  8
外形線
  6
Continuous
 62
     7
100
AcDbLine
 10
6186.929330629595
 20
3131.114293954084
 30
0.0
 11
6186.929330629595
 21
3138.414293954087
 31
0.0
  0
LINE
  5
1B9D
330
1F
100
AcDbEntity
  8
隠れ線
  6
HIDDEN2
100
AcDbLine
 10
6185.286547899497
 20
3132.264293954087
 30
0.0
 11
6185.286547899497
 21
3137.264293954087
 31
0.0
  0
LINE
  5
1B9E
330
1F
100
AcDbEntity
  8
隠れ線
  6
HIDDEN2
100
AcDbLine
 10
6440.072113359595
 20
3132.264293954087
 30
0.0
 11
6440.072113359595
 21
3137.264293954087
 31
0.0
  0
LINE
  5
1B9F
330
1F
100
AcDbEntity
  8
外形線
  6
Continuous
 62
     7
100
AcDbLine
 10
6223.629802296308
 20
3162.514293954087
 30
0.0
 11
6232.729330629593
 21
3162.514293954087
 31
0.0
  0
LINE
  5
1BA0
330
1F
100
AcDbEntity
  8
外形線
  6
Continuous
 62
     7
100
AcDbLine
 10
6232.729330629593
 20
3162.514293954087
 30
0.0
 11
6232.729330629593
 21
3159.514293954087
 31
0.0
  0
ARC
  5
1BA1
330
1F
100
AcDbEntity
  8
外形線
  6
Continuous
 62
     7
100
AcDbCircle
 10
6243.929330629595
 20
3172.114293954085
 30
0.0
 40
5.000000000000031
100
AcDbArc
 50
0.0
 51
180.0
  0
LINE
  5
1BA2
330
1F
100
AcDbEntity
  8
外形線
  6
Continuous
 62
     7
100
AcDbLine
 10
6248.929330629595
 20
3172.114293954085
 30
0.0
 11
6248.929330629595
 21
3165.302794614451
 31
0.0
  0
ARC
  5
1BA3
330
1F
100
AcDbEntity
  8
外形線
  6
Continuous
 62
     7
100
AcDbCircle
 10
6250.929330629595
 20
3165.302794614451
 30
0.0
 40
2.0
100
AcDbArc
 50
180.0
 51
224.999999999848
  0
LINE
  5
1BA4
330
1F
100
AcDbEntity
  8
外形線
  6
Continuous
 62
     7
100
AcDbLine
 10
6271.729330629593
 20
3162.514293954087
 30
0.0
 11
6275.929330629595
 21
3162.514293954087
 31
0.0
  0
LINE
  5
1BA5
330
1F
100
AcDbEntity
  8
外形線
  6
Continuous
 62
     7
100
AcDbLine
 10
6197.229330629593
 20
3109.514293954087
 30
0.0
 11
6197.429330629595
 21
3109.514293954087
 31
0.0
  0
LINE
  5
1BA6
330
1F
100
AcDbEntity
  8
外形線
  6
Continuous
 62
     7
100
AcDbLine
 10
6391.929330629595
 20
3094.514293954087
 30
0.0
 11
6391.929330629595
 21
3065.514293954087
 31
0.0
  0
LINE
  5
1BA7
330
1F
100
AcDbEntity
  8
外形線
  6
Continuous
 62
     7
100
AcDbLine
 10
6393.929330629595
 20
3063.514293954087
 30
0.0
 11
6417.929330629593
 21
3063.514293954087
 31
0.0
  0
LINE
  5
1BA8
330
1F
100
AcDbEntity
  8
外形線
  6
Continuous
 62
     7
100
AcDbLine
 10
6371.929330629595
 20
3096.514293954087
 30
0.0
 11
6389.929330629595
 21
3096.514293954087
 31
0.0
  0
LINE
  5
1BA9
330
1F
100
AcDbEntity
  8
外形線
  6
Continuous
 62
     7
100
AcDbLine
 10
6369.929330629595
 20
3065.514293954087
 30
0.0
 11
6369.929330629595
 21
3094.514293954087
 31
0.0
  0
ARC
  5
1BAA
330
1F
100
AcDbEntity
  8
外形線
  6
Continuous
 62
     7
100
AcDbCircle
 10
6367.929330629595
 20
3065.514293954087
 30
0.0
 40
2.000000000000002
100
AcDbArc
 50
270.0
 51
0.0
  0
ARC
  5
1BAB
330
1F
100
AcDbEntity
  8
外形線
  6
Continuous
 62
     7
100
AcDbCircle
 10
6393.929330629595
 20
3065.514293954087
 30
0.0
 40
2.000000000000002
100
AcDbArc
 50
180.0
 51
270.0
  0
ARC
  5
1BAC
330
1F
100
AcDbEntity
  8
外形線
  6
Continuous
 62
     7
100
AcDbCircle
 10
6389.929330629595
 20
3094.514293954087
 30
0.0
 40
2.000000000000002
100
AcDbArc
 50
0.0
 51
90.0
  0
ARC
  5
1BAD
330
1F
100
AcDbEntity
  8
外形線
  6
Continuous
 62
     7
100
AcDbCircle
 10
6371.929330629595
 20
3094.514293954087
 30
0.0
 40
2.000000000000002
100
AcDbArc
 50
90.0
 51
180.0
  0
LINE
  5
1BAE
330
1F
100
AcDbEntity
  8
外形線
  6
Continuous
 62
     7
100
AcDbLine
 10
6293.229330629593
 20
3169.014293954087
 30
0.0
 11
6290.929330629595
 21
3169.014293954087
 31
0.0
  0
LINE
  5
1BAF
330
1F
100
AcDbEntity
  8
外形線
  6
Continuous
 62
     7
100
AcDbLine
 10
6286.929330629595
 20
3186.014293954086
 30
0.0
 11
6268.229330629593
 21
3186.014293954086
 31
0.0
  0
LINE
  5
1BB0
330
1F
100
AcDbEntity
  8
外形線
  6
Continuous
 62
     7
100
AcDbLine
 10
6288.929330629595
 20
3171.014293954085
 30
0.0
 11
6288.929330629595
 21
3184.014293954087
 31
0.0
  0
ARC
  5
1BB1
330
1F
100
AcDbEntity
  8
外形線
  6
Continuous
 62
     7
100
AcDbCircle
 10
6286.929330629595
 20
3184.014293954087
 30
0.0
 40
2.000000000000002
100
AcDbArc
 50
0.0
 51
90.0
  0
ARC
  5
1BB2
330
1F
100
AcDbEntity
  8
外形線
  6
Continuous
 62
     7
100
AcDbCircle
 10
6293.229330629593
 20
3167.014293954087
 30
0.0
 40
2.000000000000002
100
AcDbArc
 50
0.0
 51
90.0
  0
ARC
  5
1BB3
330
1F
100
AcDbEntity
  8
外形線
  6
Continuous
 62
     7
100
AcDbCircle
 10
6290.929330629595
 20
3171.014293954085
 30
0.0
 40
2.000000000000002
100
AcDbArc
 50
180.0
 51
270.0
  0
LINE
  5
1BB4
330
1F
100
AcDbEntity
  8
外形線
  6
Continuous
 62
     7
100
AcDbLine
 10
6244.229330629593
 20
3081.914293954087
 30
0.0
 11
6213.229330629594
 21
3081.914293954087
 31
0.0
  0
LINE
  5
1BB5
330
1F
100
AcDbEntity
  8
外形線
  6
Continuous
 62
     7
100
AcDbLine
 10
6211.229330629596
 20
3079.914293954087
 30
0.0
 11
6211.229330629596
 21
3071.514293954086
 31
0.0
  0
LINE
  5
1BB6
330
1F
100
AcDbEntity
  8
外形線
  6
Continuous
 62
     7
100
AcDbLine
 10
6282.929330629595
 20
3085.514293954087
 30
0.0
 11
6282.929330629595
 21
3068.514293954087
 31
0.0
  0
LINE
  5
1BB7
330
1F
100
AcDbEntity
  8
外形線
  6
Continuous
 62
     7
100
AcDbLine
 10
6284.929330629593
 20
3087.514293954086
 30
0.0
 11
6300.239334632795
 21
3087.514293954086
 31
0.0
  0
LINE
  5
1BB8
330
1F
100
AcDbEntity
  8
外形線
  6
Continuous
 62
     7
100
AcDbLine
 10
6268.929330629595
 20
3073.514293954087
 30
0.0
 11
6248.229330629595
 21
3073.514293954087
 31
0.0
  0
LINE
  5
1BB9
330
1F
100
AcDbEntity
  8
外形線
  6
Continuous
 62
     7
100
AcDbLine
 10
6270.929330629595
 20
3068.514293954087
 30
0.0
 11
6270.929330629595
 21
3071.514293954086
 31
0.0
  0
LINE
  5
1BBA
330
1F
100
AcDbEntity
  8
外形線
  6
Continuous
 62
     7
100
AcDbLine
 10
6280.929330629595
 20
3066.514293954087
 30
0.0
 11
6272.929330629595
 21
3066.514293954087
 31
0.0
  0
ARC
  5
1BBB
330
1F
100
AcDbEntity
  8
外形線
  6
Continuous
 62
     7
100
AcDbCircle
 10
6284.929330629593
 20
3085.514293954087
 30
0.0
 40
2.000000000000002
100
AcDbArc
 50
90.0
 51
180.0
  0
ARC
  5
1BBC
330
1F
100
AcDbEntity
  8
外形線
  6
Continuous
 62
     7
100
AcDbCircle
 10
6268.929330629595
 20
3071.514293954086
 30
0.0
 40
2.0
100
AcDbArc
 50
0.0
 51
90.0
  0
ARC
  5
1BBD
330
1F
100
AcDbEntity
  8
外形線
  6
Continuous
 62
     7
100
AcDbCircle
 10
6244.229330629593
 20
3079.914293954087
 30
0.0
 40
2.000000000000002
100
AcDbArc
 50
0.0
 51
90.0
  0
ARC
  5
1BBE
330
1F
100
AcDbEntity
  8
外形線
  6
Continuous
 62
     7
100
AcDbCircle
 10
6213.229330629594
 20
3079.914293954087
 30
0.0
 40
2.000000000000002
100
AcDbArc
 50
90.0
 51
180.0
  0
ARC
  5
1BBF
330
1F
100
AcDbEntity
  8
外形線
  6
Continuous
 62
     7
100
AcDbCircle
 10
6272.929330629595
 20
3068.514293954087
 30
0.0
 40
2.000000000000002
100
AcDbArc
 50
180.0
 51
270.0
  0
ARC
  5
1BC0
330
1F
100
AcDbEntity
  8
外形線
  6
Continuous
 62
     7
100
AcDbCircle
 10
6280.929330629595
 20
3068.514293954087
 30
0.0
 40
2.0
100
AcDbArc
 50
270.0
 51
0.0
  0
LINE
  5
1BC1
330
1F
100
AcDbEntity
  8
外形線
  6
Continuous
 62
     7
100
AcDbLine
 10
6282.929330629595
 20
3155.514293954087
 30
0.0
 11
6282.929330629595
 21
3147.514293954087
 31
0.0
  0
ARC
  5
1BC2
330
1F
100
AcDbEntity
  8
外形線
  6
Continuous
 62
     7
100
AcDbCircle
 10
6281.929330629595
 20
3155.514293954087
 30
0.0
 40
1.0
100
AcDbArc
 50
0.0
 51
90.0
  0
LINE
  5
1BC3
330
1F
100
AcDbEntity
  8
外形線
  6
Continuous
 62
     7
100
AcDbLine
 10
6284.929330629593
 20
3145.514293954087
 30
0.0
 11
6286.929330629595
 21
3145.514293954087
 31
0.0
  0
LINE
  5
1BC4
330
1F
100
AcDbEntity
  8
外形線
  6
Continuous
 62
     7
100
AcDbLine
 10
6246.229330629593
 20
3075.514293954086
 30
0.0
 11
6246.229330629593
 21
3079.914293954087
 31
0.0
  0
LINE
  5
1BC5
330
1F
100
AcDbEntity
  8
外形線
  6
Continuous
 62
     7
100
AcDbLine
 10
6290.929330629595
 20
3122.514293954087
 30
0.0
 11
6295.229330629593
 21
3122.514293954087
 31
0.0
  0
LINE
  5
1BC6
330
1F
100
AcDbEntity
  8
外形線
  6
Continuous
 62
     7
100
AcDbLine
 10
6288.929330629595
 20
3143.514293954087
 30
0.0
 11
6288.929330629595
 21
3124.514293954085
 31
0.0
  0
ARC
  5
1BC7
330
1F
100
AcDbEntity
  8
外形線
  6
Continuous
 62
     7
100
AcDbCircle
 10
6290.929330629595
 20
3124.514293954085
 30
0.0
 40
2.000000000000002
100
AcDbArc
 50
180.0
 51
270.0
  0
ARC
  5
1BC8
330
1F
100
AcDbEntity
  8
外形線
  6
Continuous
 62
     7
100
AcDbCircle
 10
6299.229330629593
 20
3120.514293954087
 30
0.0
 40
2.000000000000002
100
AcDbArc
 50
180.0
 51
270.0
  0
ARC
  5
1BC9
330
1F
100
AcDbEntity
  8
外形線
  6
Continuous
 62
     7
100
AcDbCircle
 10
6284.929330629593
 20
3147.514293954087
 30
0.0
 40
2.000000000000002
100
AcDbArc
 50
180.0
 51
270.0
  0
ARC
  5
1BCA
330
1F
100
AcDbEntity
  8
外形線
  6
Continuous
 62
     7
100
AcDbCircle
 10
6286.929330629595
 20
3143.514293954087
 30
0.0
 40
2.000000000000002
100
AcDbArc
 50
0.0
 51
90.0
  0
ARC
  5
1BCB
330
1F
100
AcDbEntity
  8
外形線
  6
Continuous
 62
     7
100
AcDbCircle
 10
6295.229330629593
 20
3120.514293954087
 30
0.0
 40
2.000000000000002
100
AcDbArc
 50
0.0
 51
90.0
  0
ARC
  5
1BCC
330
1F
100
AcDbEntity
  8
外形線
  6
Continuous
 62
     7
100
AcDbCircle
 10
6248.229330629595
 20
3075.514293954086
 30
0.0
 40
2.000000000000002
100
AcDbArc
 50
180.0
 51
270.0
  0
LINE
  5
1BCD
330
1F
100
AcDbEntity
  8
外形線
  6
Continuous
 62
     7
100
AcDbLine
 10
6281.829335193357
 20
3156.514293954087
 30
0.0
 11
6281.929330629595
 21
3156.514293954087
 31
0.0
  0
LINE
  5
1BCE
330
1F
100
AcDbEntity
  8
外形線
  6
Continuous
 62
     7
100
AcDbLine
 10
6271.729330629593
 20
3159.514293954087
 30
0.0
 11
6271.729330629593
 21
3162.514293954087
 31
0.0
  0
LINE
  5
1BCF
330
1F
100
AcDbEntity
  8
外形線
  6
Continuous
 62
     7
100
AcDbLine
 10
6234.729330629593
 20
3157.514293954087
 30
0.0
 11
6236.929330629595
 21
3157.514293954087
 31
0.0
  0
LINE
  5
1BD0
330
1F
100
AcDbEntity
  8
外形線
  6
Continuous
 62
     7
100
AcDbLine
 10
6223.629802296308
 20
3158.514293954087
 30
0.0
 11
6223.629802296308
 21
3162.514293954087
 31
0.0
  0
ARC
  5
1BD1
330
1F
100
AcDbEntity
  8
外形線
100
AcDbCircle
 10
6221.629802296309
 20
3158.514293954087
 30
0.0
 40
2.0
100
AcDbArc
 50
270.0
 51
0.0
  0
ARC
  5
1BD2
330
1F
100
AcDbEntity
  8
外形線
  6
Continuous
 62
     7
100
AcDbCircle
 10
6269.729330629593
 20
3159.514293954087
 30
0.0
 40
2.000000000000002
100
AcDbArc
 50
270.0
 51
0.0
  0
ARC
  5
1BD3
330
1F
100
AcDbEntity
  8
外形線
  6
Continuous
 62
     7
100
AcDbCircle
 10
6234.729330629593
 20
3159.514293954087
 30
0.0
 40
2.000000000000002
100
AcDbArc
 50
180.0
 51
270.0
  0
ARC
  5
1BD4
330
1F
100
AcDbEntity
  8
外形線
  6
Continuous
 62
     7
100
AcDbCircle
 10
6210.429330629595
 20
3158.514293954087
 30
0.0
 40
2.000000000000002
100
AcDbArc
 50
180.0
 51
270.0
  0
LINE
  5
1BD5
330
1F
100
AcDbEntity
  8
外形線
  6
Continuous
 62
     7
100
AcDbLine
 10
6249.515117067222
 20
3163.888581052077
 30
0.0
 11
6255.304384752522
 21
3158.099313366776
 31
0.0
  0
ARC
  5
1BD6
330
1F
100
AcDbEntity
  8
外形線
  6
Continuous
 62
     7
100
AcDbCircle
 10
6256.718598314922
 20
3159.513526929077
 30
0.0
 40
2.000000000000002
100
AcDbArc
 50
224.999999999848
 51
270.0
  0
LINE
  5
1BD7
330
1F
100
AcDbEntity
  8
外形線
  6
Continuous
 62
     7
100
AcDbLine
 10
6238.929330629595
 20
3159.514293954087
 30
0.0
 11
6238.929330629595
 21
3172.114293954085
 31
0.0
  0
ARC
  5
1BD8
330
1F
100
AcDbEntity
  8
外形線
  6
Continuous
 62
     7
100
AcDbCircle
 10
6236.929330629595
 20
3159.514293954087
 30
0.0
 40
2.000000000000002
100
AcDbArc
 50
270.0
 51
0.0
  0
LINE
  5
1BD9
330
1F
100
AcDbEntity
  8
外形線
  6
Continuous
 62
     7
100
AcDbLine
 10
6198.429330629595
 20
3110.514293954087
 30
0.0
 11
6198.429330629595
 21
3161.814293954085
 31
0.0
  0
ARC
  5
1BDA
330
1F
100
AcDbEntity
  8
外形線
  6
Continuous
 62
     7
100
AcDbCircle
 10
6197.429330629595
 20
3110.514293954087
 30
0.0
 40
1.000000000000001
100
AcDbArc
 50
270.0
 51
0.0
  0
LINE
  5
1BDB
330
1F
100
AcDbEntity
  8
外形線
  6
Continuous
 62
     7
100
AcDbLine
 10
6439.729330629595
 20
3131.114293954084
 30
0.0
 11
6438.429330629593
 21
3131.114293954084
 31
0.0
  0
LINE
  5
1BDC
330
1F
100
AcDbEntity
  8
外形線
  6
Continuous
 62
     7
100
AcDbLine
 10
6438.429330629593
 20
3138.414293954087
 30
0.0
 11
6439.729330629595
 21
3138.414293954087
 31
0.0
  0
ARC
  5
1BDD
330
1F
100
AcDbEntity
  8
外形線
  6
HIDDEN2
 62
     7
100
AcDbCircle
 10
6439.729330629595
 20
3131.114293954084
 30
0.0
 40
1.199999999999999
100
AcDbArc
 50
0.0
 51
73.40215786397298
  0
ARC
  5
1BDE
330
1F
100
AcDbEntity
  8
外形線
  6
HIDDEN2
 62
     7
100
AcDbCircle
 10
6439.729330629595
 20
3138.414293954087
 30
0.0
 40
1.199999999999997
100
AcDbArc
 50
286.5978421360266
 51
0.0
  0
LINE
  5
1BDF
330
1F
100
AcDbEntity
  8
外形線
  6
Continuous
 62
     7
100
AcDbLine
 10
6185.629330629596
 20
3138.414293954087
 30
0.0
 11
6186.929330629595
 21
3138.414293954087
 31
0.0
  0
LINE
  5
1BE0
330
1F
100
AcDbEntity
  8
外形線
  6
Continuous
 62
     7
100
AcDbLine
 10
6186.929330629595
 20
3131.114293954084
 30
0.0
 11
6185.629330629596
 21
3131.114293954084
 31
0.0
  0
ARC
  5
1BE1
330
1F
100
AcDbEntity
  8
外形線
  6
HIDDEN2
 62
     7
100
AcDbCircle
 10
6185.629330629596
 20
3138.414293954087
 30
0.0
 40
1.199999999999979
100
AcDbArc
 50
180.0
 51
253.4021578639734
  0
ARC
  5
1BE2
330
1F
100
AcDbEntity
  8
外形線
  6
HIDDEN2
 62
     7
100
AcDbCircle
 10
6185.629330629596
 20
3131.114293954084
 30
0.0
 40
1.200000000000004
100
AcDbArc
 50
106.597842136027
 51
180.0
  0
LINE
  5
1BE3
330
1F
100
AcDbEntity
  8
外形線
  6
HIDDEN2
 62
     7
100
AcDbLine
 10
6185.286547899497
 20
3137.264293954087
 30
0.0
 11
6186.929330629595
 21
3137.264293954087
 31
0.0
  0
LINE
  5
1BE4
330
1F
100
AcDbEntity
  8
外形線
  6
HIDDEN2
 62
     7
100
AcDbLine
 10
6186.929330629595
 20
3132.264293954087
 30
0.0
 11
6185.286547899497
 21
3132.264293954087
 31
0.0
  0
LINE
  5
1BE5
330
1F
100
AcDbEntity
  8
外形線
  6
HIDDEN2
 62
     7
100
AcDbLine
 10
6440.072113359595
 20
3132.264293954087
 30
0.0
 11
6438.429330629593
 21
3132.264293954087
 31
0.0
  0
LINE
  5
1BE6
330
1F
100
AcDbEntity
  8
外形線
  6
HIDDEN2
 62
     7
100
AcDbLine
 10
6438.429330629593
 20
3137.264293954087
 30
0.0
 11
6440.072113359595
 21
3137.264293954087
 31
0.0
  0
LINE
  5
1BE7
330
1F
100
AcDbEntity
  8
外形線
  6
HIDDEN2
 62
     7
100
AcDbLine
 10
6184.620618579494
 20
3131.764293954086
 30
0.0
 11
6186.929330629595
 21
3131.764293954086
 31
0.0
  0
LINE
  5
1BE8
330
1F
100
AcDbEntity
  8
外形線
  6
HIDDEN2
 62
     7
100
AcDbLine
 10
6184.620618579494
 20
3137.764293954087
 30
0.0
 11
6186.929330629595
 21
3137.764293954087
 31
0.0
  0
LINE
  5
1BE9
330
1F
100
AcDbEntity
  8
外形線
  6
HIDDEN2
 62
     7
100
AcDbLine
 10
6440.738042679597
 20
3137.764293954087
 30
0.0
 11
6438.429330629593
 21
3137.764293954087
 31
0.0
  0
LINE
  5
1BEA
330
1F
100
AcDbEntity
  8
外形線
  6
HIDDEN2
 62
     7
100
AcDbLine
 10
6440.738042679597
 20
3131.764293954086
 30
0.0
 11
6438.429330629593
 21
3131.764293954086
 31
0.0
  0
LINE
  5
1BEB
330
1F
100
AcDbEntity
  8
中心線
  6
DASHDOT2
100
AcDbLine
 10
6182.746536321396
 20
3134.764293954086
 30
0.0
 11
6188.694464195094
 21
3134.764293954086
 31
0.0
  0
LINE
  5
1BEC
330
1F
100
AcDbEntity
  8
中心線
  6
DASHDOT2
100
AcDbLine
 10
6436.424350843593
 20
3134.764293954086
 30
0.0
 11
6443.092389481996
 21
3134.764293954086
 31
0.0
  0
LINE
  5
1BED
330
1F
100
AcDbEntity
  8
外形線
100
AcDbLine
 10
6271.729330629593
 20
3162.514293954087
 30
0.0
 11
6280.829335193357
 21
3162.514293954087
 31
0.0
  0
LINE
  5
1BEE
330
1F
100
AcDbEntity
  8
外形線
100
AcDbLine
 10
6280.829335193357
 20
3162.517315129171
 30
0.0
 11
6280.829335193357
 21
3157.514293954087
 31
0.0
  0
ARC
  5
1BEF
330
1F
100
AcDbEntity
  8
外形線
100
AcDbCircle
 10
6281.829335193357
 20
3157.514293954087
 30
0.0
 40
1.0
100
AcDbArc
 50
180.0
 51
270.0
  0
LINE
  5
1BF0
330
1F
100
AcDbEntity
  8
外形線
100
AcDbLine
 10
6269.729330629593
 20
3157.514293954087
 30
0.0
 11
6256.718598314922
 21
3157.513526929077
 31
0.0
  0
LINE
  5
1BF1
330
1F
100
AcDbEntity
  8
外形線
100
AcDbLine
 10
6210.429330629595
 20
3156.514293954087
 30
0.0
 11
6221.629802296309
 21
3156.514293954087
 31
0.0
  0
LINE
  5
1BF2
330
1F
100
AcDbEntity
  8
隠れ線
100
AcDbLine
 10
6183.342415449646
 20
2815.344986850696
 30
0.0
 11
6183.342415449646
 21
2839.344986850696
 31
0.0
  0
LINE
  5
1BF3
330
1F
100
AcDbEntity
  8
隠れ線
100
AcDbLine
 10
6183.342415449646
 20
2839.344986850696
 30
0.0
 11
6439.842415449646
 21
2839.344986850696
 31
0.0
  0
LINE
  5
1BF4
330
1F
100
AcDbEntity
  8
隠れ線
100
AcDbLine
 10
6439.842415449646
 20
2839.344986850696
 30
0.0
 11
6439.842415449646
 21
2815.344986850696
 31
0.0
  0
LINE
  5
1BF5
330
1F
100
AcDbEntity
  8
隠れ線
100
AcDbLine
 10
6439.842415449646
 20
2815.344986850696
 30
0.0
 11
6437.842415449646
 21
2815.344986850696
 31
0.0
  0
LINE
  5
1BF6
330
1F
100
AcDbEntity
  8
隠れ線
100
AcDbLine
 10
6437.842415449646
 20
2815.344986850696
 30
0.0
 11
6437.842415449646
 21
2837.344986850696
 31
0.0
  0
LINE
  5
1BF7
330
1F
100
AcDbEntity
  8
隠れ線
100
AcDbLine
 10
6437.842415449646
 20
2837.344986850696
 30
0.0
 11
6185.34241544965
 21
2837.344986850693
 31
0.0
  0
LINE
  5
1BF8
330
1F
100
AcDbEntity
  8
隠れ線
100
AcDbLine
 10
6183.342415449646
 20
2815.344986850696
 30
0.0
 11
6185.342415449646
 21
2815.344986850696
 31
0.0
  0
LINE
  5
1BF9
330
1F
100
AcDbEntity
  8
隠れ線
100
AcDbLine
 10
6185.342415449646
 20
2815.344986850696
 30
0.0
 11
6185.342415449646
 21
2837.344986850696
 31
0.0
  0
LINE
  5
1BFA
330
1F
100
AcDbEntity
  8
隠れ線
  6
Continuous
100
AcDbLine
 10
6186.642415449647
 20
2828.994986850697
 30
0.0
 11
6186.642415449647
 21
2821.694986850694
 31
0.0
  0
LINE
  5
1BFB
330
1F
100
AcDbEntity
  8
隠れ線
  6
Continuous
100
AcDbLine
 10
6185.342415449646
 20
2821.694986850694
 30
0.0
 11
6186.642415449647
 21
2821.694986850694
 31
0.0
  0
LINE
  5
1BFC
330
1F
100
AcDbEntity
  8
隠れ線
  6
Continuous
100
AcDbLine
 10
6186.642415449647
 20
2828.994986850697
 30
0.0
 11
6185.342415449646
 21
2828.994986850697
 31
0.0
  0
LINE
  5
1C01
330
1F
100
AcDbEntity
  8
隠れ線
  6
Continuous
100
AcDbLine
 10
6436.542415449655
 20
2828.994986850697
 30
0.0
 11
6436.542415449655
 21
2821.694986850694
 31
0.0
  0
LINE
  5
1C02
330
1F
100
AcDbEntity
  8
隠れ線
  6
Continuous
100
AcDbLine
 10
6437.842415449653
 20
2821.694986850694
 30
0.0
 11
6436.542415449655
 21
2821.694986850694
 31
0.0
  0
LINE
  5
1C03
330
1F
100
AcDbEntity
  8
隠れ線
  6
Continuous
100
AcDbLine
 10
6436.542415449655
 20
2828.994986850697
 30
0.0
 11
6437.842415449653
 21
2828.994986850697
 31
0.0
  0
LINE
  5
1C11
330
1F
100
AcDbEntity
  8
外形線
100
AcDbLine
 10
5759.068910719474
 20
2848.344986850696
 30
0.0
 11
5759.068910719474
 21
2806.344986850696
 31
0.0
  0
LINE
  5
1C12
330
1F
100
AcDbEntity
  8
外形線
100
AcDbLine
 10
5823.068910719474
 20
2848.344986850696
 30
0.0
 11
5823.068910719474
 21
2251.344986850696
 31
0.0
  0
LINE
  5
1C13
330
1F
100
AcDbEntity
  8
外形線
100
AcDbLine
 10
5759.068910719474
 20
2251.344986850696
 30
0.0
 11
5759.068910719474
 21
2281.344986850696
 31
0.0
  0
CIRCLE
  5
1C14
330
1F
100
AcDbEntity
  8
隠れ線
100
AcDbCircle
 10
5769.068910719474
 20
2266.344986850696
 30
0.0
 40
2.5
  0
ARC
  5
1C15
330
1F
100
AcDbEntity
  8
外形線
100
AcDbCircle
 10
5774.568910719474
 20
2286.344986850696
 30
0.0
 40
5.0
100
AcDbArc
 50
270.0
 51
0.0
  0
ARC
  5
1C16
330
1F
100
AcDbEntity
  8
外形線
100
AcDbCircle
 10
5774.56891071947
 20
2801.344986850696
 30
0.0
 40
5.0
100
AcDbArc
 50
0.0
 51
90.0
  0
LINE
  5
1C17
330
1F
100
AcDbEntity
  8
外形線
100
AcDbLine
 10
5779.56891071947
 20
2801.344986850696
 30
0.0
 11
5779.568910719477
 21
2548.844986850696
 31
0.0
  0
LINE
  5
1C18
330
1F
100
AcDbEntity
  8
外形線
100
AcDbLine
 10
5759.068910719474
 20
2251.344986850696
 30
0.0
 11
5823.068910719474
 21
2251.344986850696
 31
0.0
  0
LINE
  5
1C19
330
1F
100
AcDbEntity
  8
外形線
100
AcDbLine
 10
5759.068910719474
 20
2848.344986850696
 30
0.0
 11
5823.068910719474
 21
2848.344986850696
 31
0.0
  0
LINE
  5
1C1A
330
1F
100
AcDbEntity
  8
外形線
100
AcDbLine
 10
5759.068910719474
 20
2281.344986850696
 30
0.0
 11
5774.568910719474
 21
2281.344986850696
 31
0.0
  0
LINE
  5
1C1B
330
1F
100
AcDbEntity
  8
外形線
100
AcDbLine
 10
5759.068910719474
 20
2806.344986850696
 30
0.0
 11
5774.56891071947
 21
2806.344986850696
 31
0.0
  0
LINE
  5
1C1C
330
1F
100
AcDbEntity
  8
外形線
100
AcDbLine
 10
5779.568910719477
 20
2548.844986850696
 30
0.0
 11
5779.568910719474
 21
2286.344986850696
 31
0.0
  0
LINE
  5
1C1D
330
1F
100
AcDbEntity
  8
外形線
100
AcDbLine
 10
5695.068899129059
 20
2251.344981204939
 30
0.0
 11
5695.068899129055
 21
2848.344981204942
 31
0.0
  0
LINE
  5
1C1F
330
1F
100
AcDbEntity
  8
外形線
100
AcDbLine
 10
5695.068899129059
 20
2848.344981204938
 30
0.0
 11
5759.068898822835
 21
2848.344976833108
 31
0.0
  0
LINE
  5
1C20
330
1F
100
AcDbEntity
  8
外形線
100
AcDbLine
 10
5759.068898822835
 20
2251.344976833107
 30
0.0
 11
5695.068899129059
 21
2251.344981204939
 31
0.0
  0
CIRCLE
  5
1C21
330
1F
100
AcDbEntity
  8
隠れ線
100
AcDbCircle
 10
5749.068898822836
 20
2266.344976833106
 30
0.0
 40
2.5
  0
LINE
  5
1C22
330
1F
100
AcDbEntity
  8
外形線
100
AcDbLine
 10
5759.068898822835
 20
2281.344976833107
 30
0.0
 11
5743.568898822836
 21
2281.344976833107
 31
0.0
  0
ARC
  5
1C23
330
1F
100
AcDbEntity
  8
外形線
100
AcDbCircle
 10
5743.568898822836
 20
2286.344976833107
 30
0.0
 40
5.0
100
AcDbArc
 50
180.0
 51
270.0
  0
ARC
  5
1C24
330
1F
100
AcDbEntity
  8
外形線
100
AcDbCircle
 10
5743.568898822836
 20
2801.344976833108
 30
0.0
 40
5.0
100
AcDbArc
 50
90.0
 51
180.0
  0
LINE
  5
1C25
330
1F
100
AcDbEntity
  8
外形線
100
AcDbLine
 10
5743.568898822836
 20
2806.344976833108
 30
0.0
 11
5759.068898822835
 21
2806.344976833108
 31
0.0
  0
LINE
  5
1C26
330
1F
100
AcDbEntity
  8
外形線
100
AcDbLine
 10
5759.068898822835
 20
2848.344976833108
 30
0.0
 11
5759.068898822835
 21
2806.344976833108
 31
0.0
  0
LINE
  5
1C27
330
1F
100
AcDbEntity
  8
外形線
100
AcDbLine
 10
5759.068898822835
 20
2251.344976833103
 30
0.0
 11
5759.068898822835
 21
2281.344976833107
 31
0.0
  0
CIRCLE
  5
1C28
330
1F
100
AcDbEntity
  8
隠れ線
100
AcDbCircle
 10
5749.068899129059
 20
2266.344981204939
 30
0.0
 40
2.5
  0
LINE
  5
1C29
330
1F
100
AcDbEntity
  8
外形線
100
AcDbLine
 10
5738.568898822836
 20
2801.344976833108
 30
0.0
 11
5738.568898822836
 21
2286.344976833107
 31
0.0
  0
LINE
  5
1C2D
330
1F
100
AcDbEntity
  8
隠れ線
100
AcDbLine
 10
5776.988910719471
 20
2847.344986850696
 30
0.0
 11
5740.988910719477
 21
2847.344986850696
 31
0.0
  0
ARC
  5
1C36
330
1F
100
AcDbEntity
  8
隠れ線
100
AcDbCircle
 10
5751.080313410206
 20
2825.315493791498
 30
0.0
 40
3.0
100
AcDbArc
 50
270.2291828125283
 51
90.35665010767285
  0
ARC
  5
1C37
330
1F
100
AcDbEntity
  8
隠れ線
100
AcDbCircle
 10
5747.080345410079
 20
2825.299493855497
 30
0.0
 40
3.0
100
AcDbArc
 50
87.17133750558584
 51
270.2291828125283
  0
LINE
  5
1C38
330
1F
100
AcDbEntity
  8
隠れ線
100
AcDbLine
 10
5751.068313458207
 20
2828.315469791591
 30
0.0
 11
5746.901668652087
 21
2828.294168231142
 31
0.0
  0
LINE
  5
1C39
330
1F
100
AcDbEntity
  8
隠れ線
100
AcDbLine
 10
5751.092313362206
 20
2822.3155177914
 30
0.0
 11
5747.092345362078
 21
2822.2995178554
 31
0.0
  0
CIRCLE
  5
1C3A
330
1F
100
AcDbEntity
  8
隠れ線
100
AcDbCircle
 10
5748.996981737433
 20
2825.30716043147
 30
0.0
 40
3.0
  0
ARC
  5
1C3B
330
1F
100
AcDbEntity
  8
隠れ線
100
AcDbCircle
 10
5751.080313410202
 20
2825.315493791498
 30
0.0
 40
3.0
100
AcDbArc
 50
270.2291828125283
 51
90.35665010767285
  0
ARC
  5
1C3C
330
1F
100
AcDbEntity
  8
隠れ線
100
AcDbCircle
 10
5747.080345410076
 20
2825.2994938555
 30
0.0
 40
3.0
100
AcDbArc
 50
87.17133750558584
 51
270.2291828125283
  0
LINE
  5
1C3D
330
1F
100
AcDbEntity
  8
隠れ線
100
AcDbLine
 10
5751.068313458207
 20
2828.315469791594
 30
0.0
 11
5746.901668652087
 21
2828.294168231145
 31
0.0
  0
LINE
  5
1C3E
330
1F
100
AcDbEntity
  8
隠れ線
100
AcDbLine
 10
5751.092313362206
 20
2822.315517791404
 30
0.0
 11
5747.092345362078
 21
2822.2995178554
 31
0.0
  0
CIRCLE
  5
1C3F
330
1F
100
AcDbEntity
  8
外形線
100
AcDbCircle
 10
5749.076990367147
 20
2825.305163009989
 30
0.0
 40
8.0
  0
LINE
  5
1C40
330
1F
100
AcDbEntity
  8
隠れ線
100
AcDbLine
 10
6825.496276589344
 20
2251.344986850689
 30
0.0
 11
6871.496276589351
 21
2251.344986850693
 31
0.0
  0
ARC
  5
1C41
330
1F
100
AcDbEntity
  8
隠れ線
100
AcDbCircle
 10
6871.496276589351
 20
2253.344986850692
 30
0.0
 40
2.0
100
AcDbArc
 50
270.0
 51
0.0
  0
LINE
  5
1C42
330
1F
100
AcDbEntity
  8
隠れ線
100
AcDbLine
 10
6873.496276589351
 20
2253.344986850692
 30
0.0
 11
6873.496276589335
 21
2845.844986850693
 31
0.0
  0
ARC
  5
1C43
330
1F
100
AcDbEntity
  8
隠れ線
100
AcDbCircle
 10
6871.496276589336
 20
2845.844986850693
 30
0.0
 40
2.0
100
AcDbArc
 50
0.0
 51
90.0
  0
LINE
  5
1C44
330
1F
100
AcDbEntity
  8
隠れ線
100
AcDbLine
 10
6871.496276589336
 20
2847.844986850692
 30
0.0
 11
6825.496276589344
 21
2847.844986850692
 31
0.0
  0
ARC
  5
1C45
330
1F
100
AcDbEntity
  8
隠れ線
100
AcDbCircle
 10
6825.496276589351
 20
2845.844986850693
 30
0.0
 40
2.0
100
AcDbArc
 50
90.0
 51
180.0
  0
LINE
  5
1C46
330
1F
100
AcDbEntity
  8
隠れ線
100
AcDbLine
 10
6823.496276589342
 20
2845.844986850693
 30
0.0
 11
6823.496276589342
 21
2253.344986850689
 31
0.0
  0
ARC
  5
1C47
330
1F
100
AcDbEntity
  8
隠れ線
100
AcDbCircle
 10
6825.496276589351
 20
2253.344986850685
 30
0.0
 40
2.0
100
AcDbArc
 50
180.0
 51
270.0
  0
CIRCLE
  5
1C48
330
1F
100
AcDbEntity
  8
外形線
100
AcDbCircle
 10
5769.068910719474
 20
2266.344986850696
 30
0.0
 40
8.5
  0
CIRCLE
  5
1C49
330
1F
100
AcDbEntity
  8
外形線
100
AcDbCircle
 10
5749.068886926198
 20
2266.344986850696
 30
0.0
 40
8.5
  0
CIRCLE
  5
1C4A
330
1F
100
AcDbEntity
  8
隠れ線
100
AcDbCircle
 10
5769.068886926198
 20
2266.344986850696
 30
0.0
 40
2.5
  0
CIRCLE
  5
1C4B
330
1F
100
AcDbEntity
  8
隠れ線
100
AcDbCircle
 10
5749.068886926198
 20
2266.344986850696
 30
0.0
 40
2.5
  0
ARC
  5
1C4C
330
1F
100
AcDbEntity
  8
隠れ線
100
AcDbCircle
 10
5751.072235265692
 20
2825.347304289442
 30
0.0
 40
3.0
100
AcDbArc
 50
270.0
 51
90.12746729511455
  0
ARC
  5
1C4D
330
1F
100
AcDbEntity
  8
隠れ線
100
AcDbCircle
 10
5747.072235265692
 20
2825.347304289442
 30
0.0
 40
3.0
100
AcDbArc
 50
86.9421546930247
 51
270.0
  0
LINE
  5
1C4E
330
1F
100
AcDbEntity
  8
隠れ線
100
AcDbLine
 10
5751.072235265695
 20
2828.347304289442
 30
0.0
 11
5746.905538586699
 21
2828.342669411957
 31
0.0
  0
LINE
  5
1C4F
330
1F
100
AcDbEntity
  8
隠れ線
100
AcDbLine
 10
5751.072235265695
 20
2822.347304289442
 30
0.0
 11
5747.072235265695
 21
2822.347304289442
 31
0.0
  0
LINE
  5
1C50
330
1F
100
AcDbEntity
  8
隠れ線
100
AcDbLine
 10
5782.068886926201
 20
2251.344986850696
 30
0.0
 11
5736.068886926197
 21
2251.344986850696
 31
0.0
  0
LINE
  5
1C52
330
1F
100
AcDbEntity
  8
隠れ線
100
AcDbLine
 10
5734.068886926194
 20
2251.344986850696
 30
0.0
 11
5734.068886926205
 21
2845.344986850696
 31
0.0
  0
ARC
  5
1C53
330
1F
100
AcDbEntity
  8
隠れ線
100
AcDbCircle
 10
5736.068886926204
 20
2845.344986850696
 30
0.0
 40
2.0
100
AcDbArc
 50
90.0
 51
180.0
  0
LINE
  5
1C54
330
1F
100
AcDbEntity
  8
隠れ線
100
AcDbLine
 10
5736.068886926204
 20
2847.344986850696
 30
0.0
 11
5782.068886926205
 21
2847.344986850696
 31
0.0
  0
ARC
  5
1C55
330
1F
100
AcDbEntity
  8
隠れ線
100
AcDbCircle
 10
5782.068886926201
 20
2845.344986850696
 30
0.0
 40
2.0
100
AcDbArc
 50
0.0
 51
90.0
  0
LINE
  5
1C56
330
1F
100
AcDbEntity
  8
隠れ線
100
AcDbLine
 10
5784.068886926201
 20
2845.344986850696
 30
0.0
 11
5784.068886926201
 21
2251.344986850696
 31
0.0
  0
LINE
  5
1C59
330
1F
100
AcDbEntity
  8
外形線
100
AcDbLine
 10
5759.068898822835
 20
2280.844976833103
 30
0.0
 11
5759.068898822835
 21
2251.844976833103
 31
0.0
  0
CIRCLE
  5
1C5A
330
1F
100
AcDbEntity
  8
隠れ線
100
AcDbCircle
 10
5749.068898822836
 20
2266.344976833106
 30
0.0
 40
2.5
  0
LINE
  5
1C5B
330
1F
100
AcDbEntity
  8
隠れ線
100
AcDbLine
 10
5697.818898822836
 20
2837.844986850696
 30
0.0
 11
5697.818898822836
 21
2839.044986850693
 31
0.0
  0
LINE
  5
1C5C
330
1F
100
AcDbEntity
  8
隠れ線
100
AcDbLine
 10
5820.318898822836
 20
2839.844986850692
 30
0.0
 11
5820.318898822836
 21
2837.844986850696
 31
0.0
  0
LINE
  5
1C5D
330
1F
100
AcDbEntity
  8
隠れ線
100
AcDbLine
 10
5820.318898822836
 20
2837.844986850696
 30
0.0
 11
5779.068898822836
 21
2837.844986850696
 31
0.0
  0
LINE
  5
1C60
330
1F
100
AcDbEntity
  8
隠れ線
100
AcDbLine
 10
5739.068898822836
 20
2837.844986850692
 30
0.0
 11
5697.818898822836
 21
2837.844986850692
 31
0.0
  0
LINE
  5
1C61
330
1F
100
AcDbEntity
  8
隠れ線
100
AcDbLine
 10
5697.818898822836
 20
2837.844986850692
 30
0.0
 11
5697.818898822836
 21
2839.844986850692
 31
0.0
  0
LINE
  5
1C62
330
1F
100
AcDbEntity
  8
隠れ線
100
AcDbLine
 10
5697.818898822836
 20
2839.844986850692
 30
0.0
 11
5820.318898822836
 21
2839.844986850692
 31
0.0
  0
LINE
  5
1C63
330
1F
100
AcDbEntity
  8
隠れ線
100
AcDbLine
 10
5820.318898822836
 20
2839.844986850692
 30
0.0
 11
5820.318898822836
 21
2837.844986850692
 31
0.0
  0
LINE
  5
1C64
330
1F
100
AcDbEntity
  8
隠れ線
100
AcDbLine
 10
5820.318898822836
 20
2837.844986850692
 30
0.0
 11
5779.068898822836
 21
2837.844986850692
 31
0.0
  0
LINE
  5
1C65
330
1F
100
AcDbEntity
  8
隠れ線
100
AcDbLine
 10
5779.068898822836
 20
2837.844986850696
 30
0.0
 11
5779.068898822836
 21
2817.844986850693
 31
0.0
  0
ARC
  5
1C66
330
1F
100
AcDbEntity
  8
隠れ線
100
AcDbCircle
 10
5777.068898822836
 20
2817.844986850693
 30
0.0
 40
2.0
100
AcDbArc
 50
270.0
 51
0.0
  0
LINE
  5
1C67
330
1F
100
AcDbEntity
  8
隠れ線
100
AcDbLine
 10
5777.068898822836
 20
2815.844986850692
 30
0.0
 11
5741.068898822835
 21
2815.844986850692
 31
0.0
  0
ARC
  5
1C68
330
1F
100
AcDbEntity
  8
隠れ線
100
AcDbCircle
 10
5741.068898822835
 20
2817.844986850693
 30
0.0
 40
2.0
100
AcDbArc
 50
180.0
 51
270.0
  0
LINE
  5
1C69
330
1F
100
AcDbEntity
  8
隠れ線
100
AcDbLine
 10
5739.068898822836
 20
2817.844986850693
 30
0.0
 11
5739.068898822836
 21
2837.844986850696
 31
0.0
  0
DIMENSION
  5
1C6A
330
1F
100
AcDbEntity
  8
外形線
100
AcDbDimension
  2
*D36
 10
6511.093377920592
 20
2126.205847967591
 30
0.0
 11
6311.093377920588
 21
2137.455847967591
 31
0.0
 70
    32
 71
     5
 42
400.0000000000071
  3
uchida
100
AcDbAlignedDimension
 13
6111.093377920584
 23
2248.744986850697
 33
0.0
 14
6511.093377920592
 24
2248.744986850697
 34
0.0
100
AcDbRotatedDimension
1001
ACAD
1000
DSTYLE
1002
{
1070
    40
1040
15.0
1002
}
  0
DIMENSION
  5
1C6D
330
1F
100
AcDbEntity
  8
外形線
100
AcDbDimension
  2
*D23
 10
6442.093377920588
 20
2195.742985905388
 30
0.0
 11
6311.093377920588
 21
2206.992985905388
 31
0.0
 70
    32
 71
     5
 42
262.0
  3
uchida
100
AcDbAlignedDimension
 13
6180.093377920588
 23
2251.3449868507
 33
0.0
 14
6442.093377920588
 24
2251.3449868507
 34
0.0
100
AcDbRotatedDimension
1001
ACAD
1000
DSTYLE
1002
{
1070
    40
1040
15.0
1002
}
  0
DIMENSION
  5
1C6E
330
1F
100
AcDbEntity
  8
外形線
100
AcDbDimension
  2
*D24
 10
6450.093377920588
 20
2160.84148876637
 30
0.0
 11
6311.093377920588
 21
2172.091488766369
 31
0.0
 70
    32
 71
     5
 42
278.0
  3
uchida
100
AcDbAlignedDimension
 13
6172.093377920588
 23
2257.844989036616
 33
0.0
 14
6450.093377920588
 24
2257.844989036616
 34
0.0
100
AcDbRotatedDimension
1001
ACAD
1000
DSTYLE
1002
{
1070
    40
1040
15.0
1002
}
  0
DIMENSION
  5
1C6F
330
1F
100
AcDbEntity
  8
外形線
100
AcDbDimension
  2
*D25
 10
6980.83627658934
 20
2126.205847967591
 30
0.0
 11
6848.33627658934
 21
2137.455847967591
 31
0.0
 70
    32
 71
     5
 42
265.0
  3
uchida
100
AcDbAlignedDimension
 13
6715.83627658934
 23
2248.744986850694
 33
0.0
 14
6980.83627658934
 24
2248.744986850694
 34
0.0
100
AcDbRotatedDimension
1001
ACAD
1000
DSTYLE
1002
{
1070
    40
1040
15.0
1002
}
  0
DIMENSION
  5
1C70
330
1F
100
AcDbEntity
  8
外形線
100
AcDbDimension
  2
*D26
 10
6912.33627658934
 20
2163.494837445109
 30
0.0
 11
6848.33627658934
 21
2174.744837445109
 31
0.0
 70
    32
 71
     5
 42
128.0
  3
uchida
100
AcDbAlignedDimension
 13
6784.33627658934
 23
2251.344991222532
 33
0.0
 14
6912.33627658934
 24
2251.344986850693
 34
0.0
100
AcDbRotatedDimension
1001
ACAD
1000
DSTYLE
1002
{
1070
    40
1040
15.0
1002
}
  0
DIMENSION
  5
1C71
330
1F
100
AcDbEntity
  8
外形線
100
AcDbDimension
  2
*D27
 10
6511.879330629584
 20
2911.219273110428
 30
0.0
 11
6311.879330629587
 21
2922.469273110428
 31
0.0
 70
    32
 71
     5
 42
399.9999999999927
  3
uchida
100
AcDbAlignedDimension
 13
6111.879330629592
 23
3012.315201898058
 33
0.0
 14
6511.879330629584
 24
3012.315201898058
 34
0.0
100
AcDbRotatedDimension
1001
ACAD
1000
DSTYLE
1002
{
1070
    40
1040
15.0
1002
}
  0
DIMENSION
  5
1C72
330
1F
100
AcDbEntity
  8
寸法線
100
AcDbDimension
  2
*D28
 10
6621.576198093321
 20
2992.315201898058
 30
0.0
 11
6610.32619809332
 21
3124.815201898059
 31
0.0
 70
    32
 71
     5
 42
265.0
  3
uchida
100
AcDbAlignedDimension
 13
6491.879338702465
 23
3257.315201898058
 33
0.0
 14
6491.879330629585
 24
2992.315201898058
 34
0.0
 50
90.0
100
AcDbRotatedDimension
1001
ACAD
1000
DSTYLE
1002
{
1070
    40
1040
15.0
1070
   271
1070
     0
1002
}
  0
DIMENSION
  5
1C73
330
1F
100
AcDbEntity
  8
寸法線
100
AcDbDimension
  2
*D29
 10
6580.240838438065
 20
3060.814293954081
 30
0.0
 11
6568.990838438065
 21
3124.814293954088
 31
0.0
 70
    32
 71
     5
 42
128.0000000000109
  3
uchida
100
AcDbAlignedDimension
 13
6429.479330629593
 23
3188.814293954092
 33
0.0
 14
6417.979330629595
 24
3060.814293954081
 34
0.0
 50
90.0
100
AcDbRotatedDimension
1001
ACAD
1000
DSTYLE
1002
{
1070
    40
1040
15.0
1070
   271
1070
     0
1002
}
  0
DIMENSION
  5
1C74
330
1F
100
AcDbEntity
  8
外形線
100
AcDbDimension
  2
*D30
 10
6443.679330629596
 20
2945.153587612596
 30
0.0
 11
6312.679330629592
 21
2956.403587612598
 31
0.0
 70
    32
 71
     5
 42
262.0000000000073
  3
uchida
100
AcDbAlignedDimension
 13
6181.679330629588
 23
3086.514293954087
 33
0.0
 14
6443.679330629596
 24
3086.514293954087
 34
0.0
100
AcDbRotatedDimension
1001
ACAD
1000
DSTYLE
1002
{
1070
    40
1040
15.0
1002
}
  0
DIMENSION
  5
1C75
330
1F
100
AcDbEntity
  8
寸法線
100
AcDbDimension
  2
*D31
 10
5895.506526484279
 20
2301.344986850696
 30
0.0
 11
5884.256526484277
 21
2538.844986850699
 31
0.0
 70
    32
 71
     5
 42
475.0000000000036
  3
uchida
100
AcDbAlignedDimension
 13
5778.068910719474
 23
2776.3449868507
 33
0.0
 14
5778.068910719474
 24
2301.344986850696
 34
0.0
 50
90.0
100
AcDbRotatedDimension
1001
ACAD
1000
DSTYLE
1002
{
1070
    40
1040
15.0
1070
   271
1070
     0
1002
}
  0
DIMENSION
  5
1C76
330
1F
100
AcDbEntity
  8
寸法線
100
AcDbDimension
  2
*D32
 10
5942.959357013347
 20
2251.344978407406
 30
0.0
 11
5931.709357013346
 21
2549.844982629052
 31
0.0
 70
    32
 71
     5
 42
597.0000084432902
  3
uchida
100
AcDbAlignedDimension
 13
5823.068910719474
 23
2848.344986850696
 33
0.0
 14
5891.56891761324
 24
2251.344978407406
 34
0.0
 50
90.0
100
AcDbRotatedDimension
1001
ACAD
1000
DSTYLE
1002
{
1070
    40
1040
15.0
1070
   271
1070
     0
1002
}
  0
DIMENSION
  5
1C77
330
1F
100
AcDbEntity
  8
寸法線
100
AcDbDimension
  2
*D33
 10
5942.959357013347
 20
2248.744986850697
 30
0.0
 11
5942.959357013347
 21
2218.744986850698
 31
0.0
 70
   160
 71
     5
 42
2.599999999998543
  3
uchida
100
AcDbAlignedDimension
 13
5891.568898822836
 23
2251.344986850696
 33
0.0
 14
5891.568898822836
 24
2248.744986850697
 34
0.0
 50
90.0
100
AcDbRotatedDimension
1001
ACAD
1000
DSTYLE
1002
{
1070
    40
1040
15.0
1070
   271
1070
     0
1002
}
  0
LINE
  5
1C7C
330
1F
100
AcDbEntity
  8
隠れ線
100
AcDbLine
 10
6217.882746463078
 20
3063.601310651757
 30
0.0
 11
6297.882746463077
 21
3063.601310651757
 31
0.0
  0
LINE
  5
1C7D
330
1F
100
AcDbEntity
  8
隠れ線
100
AcDbLine
 10
6407.475914796112
 20
3063.601310651757
 30
0.0
 11
6327.475914796112
 21
3063.601310651757
 31
0.0
  0
LINE
  5
1C7E
330
1F
100
AcDbEntity
  8
隠れ線
100
AcDbLine
 10
6297.679330629595
 20
3063.601310651757
 30
0.0
 11
6327.679330629595
 21
3063.601310651757
 31
0.0
  0
LINE
  5
1C7F
330
1F
100
AcDbEntity
  8
隠れ線
100
AcDbLine
 10
6407.679330629595
 20
3062.014293954085
 30
0.0
 11
6407.679330629595
 21
3079.014293954087
 31
0.0
  0
ARC
  5
1C80
330
1F
100
AcDbEntity
  8
隠れ線
100
AcDbCircle
 10
6404.679330629595
 20
3079.014293954087
 30
0.0
 40
3.0
100
AcDbArc
 50
0.0
 51
90.0
  0
LINE
  5
1C81
330
1F
100
AcDbEntity
  8
隠れ線
100
AcDbLine
 10
6404.679330629595
 20
3082.014293954087
 30
0.0
 11
6330.679330629595
 21
3082.014293954087
 31
0.0
  0
ARC
  5
1C82
330
1F
100
AcDbEntity
  8
隠れ線
100
AcDbCircle
 10
6330.679330629595
 20
3079.014293954087
 30
0.0
 40
3.0
100
AcDbArc
 50
90.0
 51
180.0
  0
LINE
  5
1C83
330
1F
100
AcDbEntity
  8
隠れ線
100
AcDbLine
 10
6327.679330629595
 20
3079.014293954087
 30
0.0
 11
6327.679330629595
 21
3062.014293954085
 31
0.0
  0
ARC
  5
1C84
330
1F
100
AcDbEntity
  8
隠れ線
100
AcDbCircle
 10
6384.679395004578
 20
3071.014294176177
 30
0.0
 40
6.0
100
AcDbArc
 50
0.0
 51
180.0
  0
LINE
  5
1C85
330
1F
100
AcDbEntity
  8
隠れ線
100
AcDbLine
 10
6242.681196805523
 20
3082.014293954089
 30
0.0
 11
6220.679330629595
 21
3082.014293954089
 31
0.0
  0
ARC
  5
1C86
330
1F
100
AcDbEntity
  8
隠れ線
100
AcDbCircle
 10
6242.681196805523
 20
3079.014293954089
 30
0.0
 40
3.0
100
AcDbArc
 50
0.0548208171084865
 51
90.0
  0
ARC
  5
1C87
330
1F
100
AcDbEntity
  8
隠れ線
100
AcDbCircle
 10
6220.679330629595
 20
3079.014293954089
 30
0.0
 40
3.0
100
AcDbArc
 50
90.0
 51
180.0
  0
LINE
  5
1C88
330
1F
100
AcDbEntity
  8
隠れ線
100
AcDbLine
 10
6217.679330629595
 20
3079.014293954089
 30
0.0
 11
6217.679330629595
 21
3062.014293954089
 31
0.0
  0
LINE
  5
1C89
330
1F
100
AcDbEntity
  8
外形線
100
AcDbLine
 10
6217.679330629595
 20
3062.014293954089
 30
0.0
 11
6407.679330629595
 21
3062.014293954085
 31
0.0
  0
LINE
  5
1C8A
330
1F
100
AcDbEntity
  8
隠れ線
100
AcDbLine
 10
6297.679330629595
 20
3062.014293954089
 30
0.0
 11
6297.679330629595
 21
3079.014293954089
 31
0.0
  0
ARC
  5
1C8B
330
1F
100
AcDbEntity
  8
隠れ線
100
AcDbCircle
 10
6294.679330629595
 20
3079.014293954089
 30
0.0
 40
3.0
100
AcDbArc
 50
0.0
 51
90.0
  0
LINE
  5
1C8C
330
1F
100
AcDbEntity
  8
隠れ線
100
AcDbLine
 10
6294.679330629595
 20
3082.014293954089
 30
0.0
 11
6260.682140779067
 21
3082.014293954089
 31
0.0
  0
LINE
  5
1C8D
330
1F
100
AcDbEntity
  8
外形線
100
AcDbLine
 10
6245.68214889073
 20
3078.020661039253
 30
0.0
 11
6245.681195432313
 21
3079.017164364919
 31
0.0
  0
LINE
  5
1C8E
330
1F
100
AcDbEntity
  8
隠れ線
100
AcDbLine
 10
6257.682140779067
 20
3077.917002549316
 30
0.0
 11
6257.682140779067
 21
3079.014293954087
 31
0.0
  0
ARC
  5
1C8F
330
1F
100
AcDbEntity
  8
隠れ線
100
AcDbCircle
 10
6260.682140779067
 20
3079.014293954089
 30
0.0
 40
3.0
100
AcDbArc
 50
90.0
 51
180.0
  0
ARC
  5
1C90
330
1F
100
AcDbEntity
  8
隠れ線
100
AcDbCircle
 10
6251.683087378744
 20
3078.0142912985
 30
0.0
 40
6.000944574468968
100
AcDbArc
 50
179.9270218848461
 51
1.438483847771746
  0
LINE
  5
1C91
330
1F
100
AcDbEntity
  8
隠れ線
100
AcDbLine
 10
6233.679330629602
 20
3186.014293954093
 30
0.0
 11
6348.679330629602
 21
3186.014293954093
 31
0.0
  0
LINE
  5
1C92
330
1F
100
AcDbEntity
  8
外形線
100
AcDbLine
 10
6348.679330629598
 20
3187.614293954092
 30
0.0
 11
6233.679330629602
 21
3187.614293954092
 31
0.0
  0
LINE
  5
1C93
330
1F
100
AcDbEntity
  8
外形線
100
AcDbLine
 10
6348.679330629602
 20
3187.614293954092
 30
0.0
 11
6233.679330629602
 21
3187.614293954092
 31
0.0
  0
LINE
  5
1C94
330
1F
100
AcDbEntity
  8
隠れ線
100
AcDbLine
 10
6233.679330629602
 20
3186.014293954093
 30
0.0
 11
6348.679330629602
 21
3186.014293954093
 31
0.0
  0
LINE
  5
1C95
330
1F
100
AcDbEntity
  8
外形線
100
AcDbLine
 10
6348.679330629598
 20
3187.614293954092
 30
0.0
 11
6233.679330629602
 21
3187.614293954092
 31
0.0
  0
CIRCLE
  5
1C96
330
1F
100
AcDbEntity
  8
隠れ線
100
AcDbCircle
 10
6258.166875545938
 20
3164.621489414298
 30
0.0
 40
6.0
  0
CIRCLE
  5
1C97
330
1F
100
AcDbEntity
  8
隠れ線
100
AcDbCircle
 10
6336.765283338602
 20
3165.621601893345
 30
0.0
 40
7.0
  0
ARC
  5
1C98
330
1F
100
AcDbEntity
  8
隠れ線
100
AcDbCircle
 10
6345.679330629602
 20
3158.614293954091
 30
0.0
 40
3.0
100
AcDbArc
 50
270.0
 51
0.0
  0
LINE
  5
1C99
330
1F
100
AcDbEntity
  8
隠れ線
100
AcDbLine
 10
6348.679330629602
 20
3158.614293954091
 30
0.0
 11
6348.679330629602
 21
3187.614293954092
 31
0.0
  0
LINE
  5
1C9A
330
1F
100
AcDbEntity
  8
外形線
100
AcDbLine
 10
6348.679330629602
 20
3187.614293954092
 30
0.0
 11
6233.679330629602
 21
3187.614293954092
 31
0.0
  0
LINE
  5
1C9B
330
1F
100
AcDbEntity
  8
隠れ線
100
AcDbLine
 10
6233.679330629602
 20
3187.614293954092
 30
0.0
 11
6233.679330629602
 21
3158.614293954091
 31
0.0
  0
ARC
  5
1C9C
330
1F
100
AcDbEntity
  8
隠れ線
100
AcDbCircle
 10
6236.679330629602
 20
3158.614293954091
 30
0.0
 40
3.0
100
AcDbArc
 50
180.0
 51
270.0
  0
LINE
  5
1C9D
330
1F
100
AcDbEntity
  8
隠れ線
100
AcDbLine
 10
6236.679330629602
 20
3155.614293954092
 30
0.0
 11
6345.679330629602
 21
3155.614293954092
 31
0.0
  0
LINE
  5
1C9F
330
1F
100
AcDbEntity
  8
隠れ線
100
AcDbLine
 10
6378.679395004581
 20
3071.014294176177
 30
0.0
 11
6378.679395004581
 21
3062.014293954085
 31
0.0
  0
LINE
  5
1CA0
330
1F
100
AcDbEntity
  8
隠れ線
100
AcDbLine
 10
6390.679395004578
 20
3071.014294176177
 30
0.0
 11
6390.679395004578
 21
3062.014293954085
 31
0.0
  0
LINE
  5
1CA1
330
1F
100
AcDbEntity
  8
隠れ線
100
AcDbLine
 10
6378.679395004581
 20
3063.601310651757
 30
0.0
 11
6390.679395004578
 21
3063.601310651757
 31
0.0
  0
MTEXT
  5
217A
330
1F
100
AcDbEntity
  8
文字
100
AcDbMText
 10
6012.9475010479
 20
3021.254925482182
 30
0.0
 40
20.0
 41
27.734375
 71
     1
 72
     5
  1
①
  7
MSPゴシック
 73
     1
 44
1.0
  0
LINE
  5
217B
330
1F
100
AcDbEntity
  8
寸法線
100
AcDbLine
 10
6039.463739319268
 20
3012.393180440583
 30
0.0
 11
6193.894436400714
 21
3115.542670976962
 31
0.0
  0
MTEXT
  5
218A
330
1F
100
AcDbEntity
  8
文字
100
AcDbMText
 10
6031.60502182164
 20
2628.681232081712
 30
0.0
 40
20.0
 41
27.734375
 71
     1
 72
     5
  1
②
  7
MSPゴシック
 73
     1
 44
1.0
  0
LINE
  5
218B
330
1F
100
AcDbEntity
  8
寸法線
100
AcDbLine
 10
6059.159408179009
 20
2610.055389783642
 30
0.0
 11
6260.253251278514
 21
2559.477811813474
 31
0.0
  0
MTEXT
  5
2194
330
1F
100
AcDbEntity
  8
文字
100
AcDbMText
 10
6054.840330530198
 20
2873.430127114232
 30
0.0
 40
20.0
 41
27.734375
 71
     1
 72
     5
  1
③
  7
MSPゴシック
 73
     1
 44
1.0
  0
LINE
  5
2195
330
1F
100
AcDbEntity
  8
寸法線
100
AcDbLine
 10
6082.394716887567
 20
2854.804284816162
 30
0.0
 11
6175.259721529772
 21
2826.945488163719
 31
0.0
  0
MTEXT
  5
219E
330
1F
100
AcDbEntity
  8
文字
100
AcDbMText
 10
6063.639572940118
 20
2742.739559799886
 30
0.0
 40
20.0
 41
27.734375
 71
     1
 72
     5
  1
④
  7
MSPゴシック
 73
     1
 44
1.0
  0
LINE
  5
219F
330
1F
100
AcDbEntity
  8
寸法線
100
AcDbLine
 10
6090.65988013998
 20
2732.277610599263
 30
0.0
 11
6277.390027672393
 21
2822.559729921943
 31
0.0
  0
MTEXT
  5
21B2
330
1F
100
AcDbEntity
  8
文字
100
AcDbMText
 10
5563.133534622032
 20
2676.66225592847
 30
0.0
 40
20.0
 41
27.734375
 71
     1
 72
     5
  1
⑤
  7
MSPゴシック
 73
     1
 44
1.0
  0
LINE
  5
21B3
330
1F
100
AcDbEntity
  8
寸法線
100
AcDbLine
 10
5590.687920979402
 20
2658.0364136304
 30
0.0
 11
5751.054585222249
 21
2615.692316948577
 31
0.0
  0
MTEXT
  5
21BC
330
1F
100
AcDbEntity
  8
文字
100
AcDbMText
 10
5574.330086752663
 20
2531.227111442515
 30
0.0
 40
20.0
 41
27.734375
 71
     1
 72
     5
  1
⑥
  7
MSPゴシック
 73
     1
 44
1.0
  0
LINE
  5
21BD
330
1F
100
AcDbEntity
  8
寸法線
100
AcDbLine
 10
5601.350393952524
 20
2520.765162241893
 30
0.0
 11
5727.186137870703
 21
2583.19887383055
 31
0.0
  0
MTEXT
  5
21D0
330
1F
100
AcDbEntity
  8
文字
100
AcDbMText
 10
6014.176236309275
 20
2324.855529527613
 30
0.0
 40
20.0
 41
27.734375
 71
     1
 72
     5
  1
⑧
  7
MSPゴシック
 73
     1
 44
1.0
  0
LINE
  5
21D1
330
1F
100
AcDbEntity
  8
寸法線
100
AcDbLine
 10
6042.109645075798
 20
2305.397006636669
 30
0.0
 11
6174.349637359479
 21
2268.259109049453
 31
0.0
  0
MTEXT
  5
21E8
330
1F
100
AcDbEntity
  8
文字
100
AcDbMText
 10
5569.631415837688
 20
2460.580345151539
 30
0.0
 40
20.0
 41
27.734375
 71
     1
 72
     5
  1
⑦
  7
MSPゴシック
 73
     1
 44
1.0
  0
LINE
  5
21E9
330
1F
100
AcDbEntity
  8
寸法線
100
AcDbLine
 10
5595.725335570591
 20
2440.674180112421
 30
0.0
 11
5741.858005508922
 21
2379.150924153519
 31
0.0
  0
MTEXT
  5
21F2
330
1F
100
AcDbEntity
  8
文字
100
AcDbMText
 10
6004.794987259963
 20
2276.735829156001
 30
0.0
 40
20.0
 41
27.734375
 71
     1
 72
     5
  1
⑨
  7
MSPゴシック
 73
     1
 44
1.0
  0
LINE
  5
21F3
330
1F
100
AcDbEntity
  8
寸法線
100
AcDbLine
 10
6032.684515130441
 20
2259.248606913234
 30
0.0
 11
6119.164381584153
 21
2251.01555793359
 31
0.0
  0
LINE
  5
22CF
330
1F
100
AcDbEntity
  8
外形線
100
AcDbLine
 10
5739.068910719474
 20
2776.3449868507
 30
0.0
 11
5779.068910719473
 21
2776.3449868507
 31
0.0
  0
LINE
  5
22D0
330
1F
100
AcDbEntity
  8
外形線
100
AcDbLine
 10
5739.068910719474
 20
2301.3449868507
 30
0.0
 11
5779.068910719473
 21
2301.3449868507
 31
0.0
  0
LINE
  5
22D2
330
1F
100
AcDbEntity
  8
隠れ線
100
AcDbLine
 10
5721.491650145124
 20
2834.344986850693
 30
0.0
 11
5796.646171293823
 21
2834.344986850696
 31
0.0
  0
LINE
  5
22D4
330
1F
100
AcDbEntity
  8
隠れ線
100
AcDbLine
 10
5737.491650145124
 20
2834.344986850696
 30
0.0
 11
5738.491650145125
 21
2834.344986850696
 31
0.0
  0
LINE
  5
22D6
330
1F
100
AcDbEntity
  8
隠れ線
100
AcDbLine
 10
5780.646171293827
 20
2834.344986850696
 30
0.0
 11
5779.646171293827
 21
2834.344986850696
 31
0.0
  0
LINE
  5
22D7
330
1F
100
AcDbEntity
  8
隠れ線
100
AcDbLine
 10
5738.491650145132
 20
2834.344986850693
 30
0.0
 11
5738.491650145125
 21
2251.344986850696
 31
0.0
  0
LINE
  5
22D8
330
1F
100
AcDbEntity
  8
隠れ線
100
AcDbLine
 10
5738.491650145125
 20
2251.344986850696
 30
0.0
 11
5723.491650145128
 21
2251.344986850696
 31
0.0
  0
LINE
  5
22D9
330
1F
100
AcDbEntity
  8
隠れ線
100
AcDbLine
 10
5721.49165014513
 20
2253.344986850696
 30
0.0
 11
5721.491650145132
 21
2834.344986850693
 31
0.0
  0
LINE
  5
22DA
330
1F
100
AcDbEntity
  8
隠れ線
100
AcDbLine
 10
5779.646171293834
 20
2834.344986850693
 30
0.0
 11
5779.646171293827
 21
2251.344986850696
 31
0.0
  0
LINE
  5
22DB
330
1F
100
AcDbEntity
  8
隠れ線
100
AcDbLine
 10
5779.646171293827
 20
2251.344986850696
 30
0.0
 11
5794.646171293827
 21
2251.344986850696
 31
0.0
  0
LINE
  5
22DC
330
1F
100
AcDbEntity
  8
隠れ線
100
AcDbLine
 10
5796.646171293827
 20
2253.344986850696
 30
0.0
 11
5796.646171293819
 21
2834.344986850696
 31
0.0
  0
ARC
  5
22DD
330
1F
100
AcDbEntity
  8
外形線
100
AcDbCircle
 10
5738.491650145125
 20
2296.3449868507
 30
0.0
 40
3.0
100
AcDbArc
 50
270.0
 51
90.0
  0
ARC
  5
22DE
330
1F
100
AcDbEntity
  8
外形線
100
AcDbCircle
 10
5779.646171293827
 20
2296.3449868507
 30
0.0
 40
3.0
100
AcDbArc
 50
90.0
 51
270.0
  0
ARC
  5
22DF
330
1F
100
AcDbEntity
  8
隠れ線
100
AcDbCircle
 10
5723.491650145128
 20
2253.3449868507
 30
0.0
 40
2.0
100
AcDbArc
 50
180.0
 51
270.0
  0
ARC
  5
22E0
330
1F
100
AcDbEntity
  8
隠れ線
100
AcDbCircle
 10
5794.646171293827
 20
2253.3449868507
 30
0.0
 40
2.0
100
AcDbArc
 50
270.0
 51
0.0
  0
LINE
  5
22E1
330
1F
100
AcDbEntity
  8
隠れ線
100
AcDbLine
 10
6181.442415449641
 20
2834.344984664785
 30
0.0
 11
6181.442415449641
 21
2251.344984664784
 31
0.0
  0
LINE
  5
22E2
330
1F
100
AcDbEntity
  8
隠れ線
100
AcDbLine
 10
6181.442415449641
 20
2834.344984664785
 30
0.0
 11
6182.442415449641
 21
2834.344984664785
 31
0.0
  0
LINE
  5
22E3
330
1F
100
AcDbEntity
  8
隠れ線
100
AcDbLine
 10
6182.442415449638
 20
2834.344984664785
 30
0.0
 11
6182.442415449641
 21
2251.344984664784
 31
0.0
  0
LINE
  5
22E5
330
1F
100
AcDbEntity
  8
隠れ線
100
AcDbLine
 10
6182.442415449641
 20
2834.344984664785
 30
0.0
 11
6198.942415449648
 21
2834.344984664785
 31
0.0
  0
LINE
  5
22E6
330
1F
100
AcDbEntity
  8
隠れ線
100
AcDbLine
 10
6198.942415449652
 20
2834.344984664781
 30
0.0
 11
6198.942415449641
 21
2251.344986850698
 31
0.0
  0
CIRCLE
  5
22E9
330
1F
100
AcDbEntity
  8
隠れ線
100
AcDbCircle
 10
6190.192415449641
 20
2294.966742001854
 30
0.0
 40
3.0
  0
LINE
  5
231A
330
1F
100
AcDbEntity
  8
隠れ線
100
AcDbLine
 10
6297.294106038146
 20
3160.61660905412
 30
0.0
 11
6319.294106038146
 21
3160.61660905412
 31
0.0
  0
LINE
  5
231B
330
1F
100
AcDbEntity
  8
隠れ線
100
AcDbLine
 10
6319.294106038146
 20
3160.61660905412
 30
0.0
 11
6319.294106038146
 21
3182.616609054119
 31
0.0
  0
LINE
  5
231C
330
1F
100
AcDbEntity
  8
隠れ線
100
AcDbLine
 10
6319.294106038146
 20
3182.616609054119
 30
0.0
 11
6297.294106038146
 21
3182.616609054119
 31
0.0
  0
LINE
  5
231D
330
1F
100
AcDbEntity
  8
隠れ線
100
AcDbLine
 10
6297.294106038146
 20
3182.616609054119
 30
0.0
 11
6297.294106038146
 21
3160.61660905412
 31
0.0
  0
LINE
  5
231E
330
1F
100
AcDbEntity
  8
外形線
100
AcDbLine
 10
6443.679330629598
 20
3126.421601893337
 30
0.0
 11
6451.679330629598
 21
3126.421601893337
 31
0.0
  0
LINE
  5
231F
330
1F
100
AcDbEntity
  8
外形線
100
AcDbLine
 10
6451.679330629598
 20
3126.421601893337
 30
0.0
 11
6451.679330629598
 21
3143.421601893337
 31
0.0
  0
LINE
  5
2320
330
1F
100
AcDbEntity
  8
外形線
100
AcDbLine
 10
6451.679330629598
 20
3143.421601893337
 30
0.0
 11
6443.679330629598
 21
3143.421601893337
 31
0.0
  0
LINE
  5
2321
330
1F
100
AcDbEntity
  8
外形線
100
AcDbLine
 10
6443.679330629598
 20
3143.421601893337
 30
0.0
 11
6443.679330629598
 21
3126.421601893337
 31
0.0
  0
LINE
  5
2322
330
1F
100
AcDbEntity
  8
外形線
100
AcDbLine
 10
6181.679330629592
 20
3126.421601893337
 30
0.0
 11
6173.679330629592
 21
3126.421601893337
 31
0.0
  0
LINE
  5
2323
330
1F
100
AcDbEntity
  8
外形線
100
AcDbLine
 10
6173.679330629592
 20
3126.421601893337
 30
0.0
 11
6173.679330629592
 21
3143.421601893337
 31
0.0
  0
LINE
  5
2324
330
1F
100
AcDbEntity
  8
外形線
100
AcDbLine
 10
6173.679330629592
 20
3143.421601893337
 30
0.0
 11
6181.679330629592
 21
3143.421601893337
 31
0.0
  0
LINE
  5
2325
330
1F
100
AcDbEntity
  8
外形線
100
AcDbLine
 10
6181.679330629592
 20
3143.421601893337
 30
0.0
 11
6181.679330629592
 21
3126.421601893337
 31
0.0
  0
LINE
  5
2326
330
1F
100
AcDbEntity
  8
外形線
100
AcDbLine
 10
6131.879330629583
 20
2992.315201898058
 30
0.0
 11
6491.879330629569
 21
2992.315201898058
 31
0.0
  0
ARC
  5
2327
330
1F
100
AcDbEntity
  8
外形線
100
AcDbCircle
 10
6491.879330629578
 20
3012.315201898065
 30
0.0
 40
20.00000000000728
100
AcDbArc
 50
269.9999999999791
 51
359.9999999999791
  0
LINE
  5
2328
330
1F
100
AcDbEntity
  8
外形線
100
AcDbLine
 10
6511.879330629584
 20
3012.315201898058
 30
0.0
 11
6511.879330629594
 21
3237.315201898058
 31
0.0
  0
ARC
  5
2329
330
1F
100
AcDbEntity
  8
外形線
100
AcDbCircle
 10
6491.879330629592
 20
3237.315201898058
 30
0.0
 40
20.0
100
AcDbArc
 50
0.0
 51
90.0
  0
LINE
  5
232A
330
1F
100
AcDbEntity
  8
外形線
100
AcDbLine
 10
6491.879330629592
 20
3257.315201898058
 30
0.0
 11
6131.879330629589
 21
3257.315201898058
 31
0.0
  0
ARC
  5
232B
330
1F
100
AcDbEntity
  8
外形線
100
AcDbCircle
 10
6131.879330629589
 20
3237.315201898058
 30
0.0
 40
20.0
100
AcDbArc
 50
90.0
 51
180.0
  0
LINE
  5
232C
330
1F
100
AcDbEntity
  8
外形線
100
AcDbLine
 10
6111.879330629587
 20
3237.315201898058
 30
0.0
 11
6111.879330629592
 21
3012.315201898058
 31
0.0
  0
ARC
  5
232D
330
1F
100
AcDbEntity
  8
外形線
100
AcDbCircle
 10
6131.879330629589
 20
3012.315201898055
 30
0.0
 40
19.99999999999636
100
AcDbArc
 50
179.9999999999895
 51
269.9999999999896
  0
LINE
  5
232E
330
1F
100
AcDbEntity
  8
隠れ線
100
AcDbLine
 10
5779.533710081705
 20
2772.180014285217
 30
0.0
 11
5766.533710081707
 21
2772.180014285217
 31
0.0
  0
LINE
  5
232F
330
1F
100
AcDbEntity
  8
隠れ線
100
AcDbLine
 10
5766.533710081707
 20
2772.180014285217
 30
0.0
 11
5766.533710081707
 21
2682.180014285217
 31
0.0
  0
LINE
  5
2330
330
1F
100
AcDbEntity
  8
隠れ線
100
AcDbLine
 10
5766.533710081707
 20
2682.180014285217
 30
0.0
 11
5779.533710081705
 21
2682.180014285217
 31
0.0
  0
LINE
  5
2331
330
1F
100
AcDbEntity
  8
隠れ線
100
AcDbLine
 10
5779.533710081705
 20
2682.180014285217
 30
0.0
 11
5779.533710081705
 21
2772.180014285217
 31
0.0
  0
LINE
  5
2332
330
1F
100
AcDbEntity
  8
隠れ線
100
AcDbLine
 10
5738.604111357243
 20
2772.180014285217
 30
0.0
 11
5751.604111357242
 21
2772.180014285217
 31
0.0
  0
LINE
  5
2333
330
1F
100
AcDbEntity
  8
隠れ線
100
AcDbLine
 10
5751.604111357242
 20
2772.180014285217
 30
0.0
 11
5751.604111357242
 21
2682.180014285217
 31
0.0
  0
LINE
  5
2334
330
1F
100
AcDbEntity
  8
隠れ線
100
AcDbLine
 10
5751.604111357242
 20
2682.180014285217
 30
0.0
 11
5738.604111357243
 21
2682.180014285217
 31
0.0
  0
LINE
  5
2335
330
1F
100
AcDbEntity
  8
隠れ線
100
AcDbLine
 10
5738.604111357243
 20
2682.180014285217
 30
0.0
 11
5738.604111357243
 21
2772.180014285217
 31
0.0
  0
LINE
  5
2336
330
1F
100
AcDbEntity
  8
隠れ線
100
AcDbLine
 10
5779.533710081705
 20
2305.509959416182
 30
0.0
 11
5766.533710081707
 21
2305.509959416182
 31
0.0
  0
LINE
  5
2337
330
1F
100
AcDbEntity
  8
隠れ線
100
AcDbLine
 10
5766.533710081707
 20
2305.509959416182
 30
0.0
 11
5766.533710081707
 21
2395.509959416182
 31
0.0
  0
LINE
  5
2338
330
1F
100
AcDbEntity
  8
隠れ線
100
AcDbLine
 10
5766.533710081707
 20
2395.509959416182
 30
0.0
 11
5779.533710081705
 21
2395.509959416182
 31
0.0
  0
LINE
  5
2339
330
1F
100
AcDbEntity
  8
隠れ線
100
AcDbLine
 10
5779.533710081705
 20
2395.509959416182
 30
0.0
 11
5779.533710081705
 21
2305.509959416182
 31
0.0
  0
LINE
  5
233A
330
1F
100
AcDbEntity
  8
隠れ線
100
AcDbLine
 10
5738.604111357243
 20
2305.509959416182
 30
0.0
 11
5751.604111357242
 21
2305.509959416182
 31
0.0
  0
LINE
  5
233B
330
1F
100
AcDbEntity
  8
隠れ線
100
AcDbLine
 10
5751.604111357242
 20
2305.509959416182
 30
0.0
 11
5751.604111357242
 21
2395.509959416182
 31
0.0
  0
LINE
  5
233C
330
1F
100
AcDbEntity
  8
隠れ線
100
AcDbLine
 10
5751.604111357242
 20
2395.509959416182
 30
0.0
 11
5738.604111357243
 21
2395.509959416182
 31
0.0
  0
LINE
  5
233D
330
1F
100
AcDbEntity
  8
隠れ線
100
AcDbLine
 10
5738.604111357243
 20
2395.509959416182
 30
0.0
 11
5738.604111357243
 21
2305.509959416182
 31
0.0
  0
LINE
  5
233E
330
1F
100
AcDbEntity
  8
隠れ線
100
AcDbLine
 10
5728.348898822842
 20
2837.844991140561
 30
0.0
 11
5696.348898822842
 21
2837.844991140561
 31
0.0
  0
LINE
  5
233F
330
1F
100
AcDbEntity
  8
隠れ線
100
AcDbLine
 10
5696.348898822842
 20
2837.844991140561
 30
0.0
 11
5696.348898822842
 21
2807.844991140561
 31
0.0
  0
LINE
  5
2340
330
1F
100
AcDbEntity
  8
隠れ線
100
AcDbLine
 10
5696.348898822842
 20
2807.844991140561
 30
0.0
 11
5697.94889882284
 21
2807.844991140561
 31
0.0
  0
LINE
  5
2341
330
1F
100
AcDbEntity
  8
隠れ線
100
AcDbLine
 10
5697.94889882284
 20
2807.844991140561
 30
0.0
 11
5697.94889882284
 21
2836.244991140562
 31
0.0
  0
LINE
  5
2342
330
1F
100
AcDbEntity
  8
隠れ線
100
AcDbLine
 10
5697.94889882284
 20
2836.244991140562
 30
0.0
 11
5728.348898822842
 21
2836.244991140562
 31
0.0
  0
LINE
  5
2343
330
1F
100
AcDbEntity
  8
隠れ線
100
AcDbLine
 10
5728.348898822842
 20
2836.244991140562
 30
0.0
 11
5728.348898822842
 21
2837.844991140561
 31
0.0
  0
LINE
  5
2344
330
1F
100
AcDbEntity
  8
隠れ線
100
AcDbLine
 10
5821.948898822837
 20
2807.844986850692
 30
0.0
 11
5820.348898822839
 21
2807.844986850692
 31
0.0
  0
LINE
  5
2345
330
1F
100
AcDbEntity
  8
隠れ線
100
AcDbLine
 10
5821.948898822837
 20
2807.844986850692
 30
0.0
 11
5821.948898822837
 21
2837.844986850692
 31
0.0
  0
LINE
  5
2346
330
1F
100
AcDbEntity
  8
隠れ線
100
AcDbLine
 10
5821.948898822837
 20
2837.844986850692
 30
0.0
 11
5801.948898822836
 21
2837.844986850692
 31
0.0
  0
LINE
  5
2347
330
1F
100
AcDbEntity
  8
隠れ線
100
AcDbLine
 10
5820.348898822839
 20
2807.844986850692
 30
0.0
 11
5820.348898822839
 21
2836.244986850694
 31
0.0
  0
LINE
  5
2348
330
1F
100
AcDbEntity
  8
隠れ線
100
AcDbLine
 10
5820.348898822839
 20
2836.244986850694
 30
0.0
 11
5801.948898822836
 21
2836.244986850694
 31
0.0
  0
LINE
  5
2349
330
1F
100
AcDbEntity
  8
隠れ線
100
AcDbLine
 10
5801.948898822836
 20
2836.244986850694
 30
0.0
 11
5801.948898822836
 21
2837.844986850692
 31
0.0
  0
LINE
  5
234A
330
1F
100
AcDbEntity
  8
外形線
100
AcDbLine
 10
5779.068910719473
 20
2525.8449868507
 30
0.0
 11
5779.068910719473
 21
2776.3449868507
 31
0.0
  0
LINE
  5
234B
330
1F
100
AcDbEntity
  8
外形線
100
AcDbLine
 10
5779.068910719473
 20
2776.3449868507
 30
0.0
 11
5739.068910719474
 21
2776.3449868507
 31
0.0
  0
LINE
  5
234C
330
1F
100
AcDbEntity
  8
外形線
100
AcDbLine
 10
5739.068910719474
 20
2776.3449868507
 30
0.0
 11
5739.068910719474
 21
2361.3449868507
 31
0.0
  0
LINE
  5
234D
330
1F
100
AcDbEntity
  8
外形線
100
AcDbLine
 10
5739.068910719474
 20
2525.8449868507
 30
0.0
 11
5739.068910719474
 21
2301.3449868507
 31
0.0
  0
LINE
  5
234E
330
1F
100
AcDbEntity
  8
外形線
100
AcDbLine
 10
5739.068910719474
 20
2301.3449868507
 30
0.0
 11
5779.068910719473
 21
2301.3449868507
 31
0.0
  0
LINE
  5
234F
330
1F
100
AcDbEntity
  8
外形線
100
AcDbLine
 10
5779.068910719473
 20
2301.3449868507
 30
0.0
 11
5779.068910719473
 21
2525.8449868507
 31
0.0
  0
LINE
  5
2350
330
1F
100
AcDbEntity
  8
外形線
100
AcDbLine
 10
5626.568898822836
 20
2251.344986850696
 30
0.0
 11
5891.568898822836
 21
2251.344986850696
 31
0.0
  0
LINE
  5
2351
330
1F
100
AcDbEntity
  8
外形線
100
AcDbLine
 10
5891.568898822836
 20
2251.344986850696
 30
0.0
 11
5891.568898822836
 21
2248.744986850697
 31
0.0
  0
LINE
  5
2352
330
1F
100
AcDbEntity
  8
外形線
100
AcDbLine
 10
5891.568898822836
 20
2248.744986850697
 30
0.0
 11
5626.568898822836
 21
2248.744986850697
 31
0.0
  0
LINE
  5
2353
330
1F
100
AcDbEntity
  8
外形線
100
AcDbLine
 10
5626.568898822836
 20
2248.744986850697
 30
0.0
 11
5626.568898822836
 21
2251.344986850696
 31
0.0
  0
TEXT
  5
2354
330
1F
100
AcDbEntity
  8
細線
100
AcDbText
 10
6375.540434784205
 20
2811.838909901353
 30
0.0
 40
15.0
  1
*
 41
0.75
  7
寸法用
100
AcDbText
  0
TEXT
  5
2355
330
1F
100
AcDbEntity
  8
細線
100
AcDbText
 10
6312.856715122503
 20
2811.838909901353
 30
0.0
 40
15.0
  1
*
 41
0.75
  7
寸法用
100
AcDbText
  0
TEXT
  5
2356
330
1F
100
AcDbEntity
  8
細線
100
AcDbText
 10
6252.707351114313
 20
2811.838909901353
 30
0.0
 40
15.0
  1
*
 41
0.75
  7
寸法用
100
AcDbText
  0
LINE
  5
2357
330
1F
100
AcDbEntity
  8
隠れ線
100
AcDbLine
 10
6441.042415449647
 20
2847.3449868507
 30
0.0
 11
6441.042415449647
 21
2251.3449868507
 31
0.0
  0
LINE
  5
2358
330
1F
100
AcDbEntity
  8
隠れ線
100
AcDbLine
 10
6441.042415449647
 20
2251.3449868507
 30
0.0
 11
6439.842415449646
 21
2251.3449868507
 31
0.0
  0
LINE
  5
2359
330
1F
100
AcDbEntity
  8
隠れ線
100
AcDbLine
 10
6439.842415449646
 20
2251.3449868507
 30
0.0
 11
6439.842415449646
 21
2847.3449868507
 31
0.0
  0
LINE
  5
235A
330
1F
100
AcDbEntity
  8
隠れ線
100
AcDbLine
 10
6439.842415449646
 20
2847.3449868507
 30
0.0
 11
6441.042415449647
 21
2847.3449868507
 31
0.0
  0
LWPOLYLINE
  5
235B
330
1F
100
AcDbEntity
  8
隠れ線
100
AcDbPolyline
 90
        6
 70
     0
 43
0.0
 10
6180.442415449641
 20
2297.966742001854
 10
6180.442415449641
 20
2772.966742001854
 10
6196.442415449642
 20
2772.966742001854
 10
6196.442415449642
 20
2297.966742001854
 10
6180.442415449641
 20
2297.966742001854
 10
6180.442415449641
 20
2522.966742001854
  0
LINE
  5
235C
330
1F
100
AcDbEntity
  8
隠れ線
100
AcDbLine
 10
6195.44241544964
 20
2772.966742001854
 30
0.0
 11
6195.44241544964
 21
2297.966742001854
 31
0.0
  0
LINE
  5
235D
330
1F
100
AcDbEntity
  8
隠れ線
100
AcDbLine
 10
6181.442415449641
 20
2772.966742001854
 30
0.0
 11
6181.442415449641
 21
2297.966742001854
 31
0.0
  0
LINE
  5
235E
330
1F
100
AcDbEntity
  8
隠れ線
100
AcDbLine
 10
6196.442415449642
 20
2772.966742001858
 30
0.0
 11
6196.442415449642
 21
2357.966742001854
 31
0.0
  0
LINE
  5
235F
330
1F
100
AcDbEntity
  8
隠れ線
100
AcDbLine
 10
6180.442415449641
 20
2772.966742001854
 30
0.0
 11
6196.442415449642
 21
2772.966742001854
 31
0.0
  0
LINE
  5
2360
330
1F
100
AcDbEntity
  8
隠れ線
100
AcDbLine
 10
6180.442415449641
 20
2297.966742001854
 30
0.0
 11
6196.442415449642
 21
2297.966742001854
 31
0.0
  0
LINE
  5
2361
330
1F
100
AcDbEntity
  8
外形線
100
AcDbLine
 10
6172.093377920583
 20
2816.844986850696
 30
0.0
 11
6180.093377920583
 21
2816.844986850696
 31
0.0
  0
LINE
  5
2362
330
1F
100
AcDbEntity
  8
外形線
100
AcDbLine
 10
6180.093377920583
 20
2816.844986850696
 30
0.0
 11
6180.093377920583
 21
2833.844986850696
 31
0.0
  0
LINE
  5
2363
330
1F
100
AcDbEntity
  8
外形線
100
AcDbLine
 10
6180.093377920583
 20
2833.844986850696
 30
0.0
 11
6172.093377920583
 21
2833.844986850696
 31
0.0
  0
LINE
  5
2364
330
1F
100
AcDbEntity
  8
外形線
100
AcDbLine
 10
6172.093377920583
 20
2833.844986850696
 30
0.0
 11
6172.093377920583
 21
2816.844986850696
 31
0.0
  0
LINE
  5
2365
330
1F
100
AcDbEntity
  8
外形線
100
AcDbLine
 10
6450.093377920592
 20
2816.844986850696
 30
0.0
 11
6442.093377920591
 21
2816.844986850696
 31
0.0
  0
LINE
  5
2366
330
1F
100
AcDbEntity
  8
外形線
100
AcDbLine
 10
6442.093377920591
 20
2816.844986850696
 30
0.0
 11
6442.093377920591
 21
2833.844986850696
 31
0.0
  0
LINE
  5
2367
330
1F
100
AcDbEntity
  8
外形線
100
AcDbLine
 10
6442.093377920591
 20
2833.844986850696
 30
0.0
 11
6450.093377920592
 21
2833.844986850696
 31
0.0
  0
LINE
  5
2368
330
1F
100
AcDbEntity
  8
外形線
100
AcDbLine
 10
6450.093377920592
 20
2833.844986850696
 30
0.0
 11
6450.093377920592
 21
2816.844986850696
 31
0.0
  0
LINE
  5
2369
330
1F
100
AcDbEntity
  8
外形線
100
AcDbLine
 10
6450.093377920588
 20
2257.844989036616
 30
0.0
 11
6442.093377920588
 21
2257.844989036616
 31
0.0
  0
LINE
  5
236A
330
1F
100
AcDbEntity
  8
外形線
100
AcDbLine
 10
6442.093377920588
 20
2257.844989036616
 30
0.0
 11
6442.093377920588
 21
2274.844989036616
 31
0.0
  0
LINE
  5
236B
330
1F
100
AcDbEntity
  8
外形線
100
AcDbLine
 10
6442.093377920588
 20
2274.844989036616
 30
0.0
 11
6450.093377920588
 21
2274.844989036616
 31
0.0
  0
LINE
  5
236C
330
1F
100
AcDbEntity
  8
外形線
100
AcDbLine
 10
6450.093377920588
 20
2274.844989036616
 30
0.0
 11
6450.093377920588
 21
2257.844989036616
 31
0.0
  0
LINE
  5
236D
330
1F
100
AcDbEntity
  8
隠れ線
100
AcDbLine
 10
6172.093377920588
 20
2257.844989036616
 30
0.0
 11
6180.093377920588
 21
2257.844989036616
 31
0.0
  0
LINE
  5
236E
330
1F
100
AcDbEntity
  8
隠れ線
100
AcDbLine
 10
6180.093377920588
 20
2257.844989036616
 30
0.0
 11
6180.093377920588
 21
2274.844989036616
 31
0.0
  0
LINE
  5
236F
330
1F
100
AcDbEntity
  8
隠れ線
100
AcDbLine
 10
6180.093377920588
 20
2274.844989036616
 30
0.0
 11
6172.093377920588
 21
2274.844989036616
 31
0.0
  0
LINE
  5
2370
330
1F
100
AcDbEntity
  8
隠れ線
100
AcDbLine
 10
6172.093377920588
 20
2274.844989036616
 30
0.0
 11
6172.093377920588
 21
2257.844989036616
 31
0.0
  0
LINE
  5
2371
330
1F
100
AcDbEntity
  8
外形線
100
AcDbLine
 10
6111.093377920584
 20
2248.744986850697
 30
0.0
 11
6511.093377920592
 21
2248.744986850697
 31
0.0
  0
LINE
  5
2372
330
1F
100
AcDbEntity
  8
外形線
100
AcDbLine
 10
6511.093377920592
 20
2248.744986850697
 30
0.0
 11
6511.093377920592
 21
2251.344986850698
 31
0.0
  0
LINE
  5
2373
330
1F
100
AcDbEntity
  8
外形線
100
AcDbLine
 10
6511.093377920592
 20
2251.344986850698
 30
0.0
 11
6111.093377920584
 21
2251.344986850698
 31
0.0
  0
LINE
  5
2374
330
1F
100
AcDbEntity
  8
外形線
100
AcDbLine
 10
6111.093377920584
 20
2251.344986850698
 30
0.0
 11
6111.093377920584
 21
2248.744986850697
 31
0.0
  0
LINE
  5
2375
330
1F
100
AcDbEntity
  8
隠れ線
100
AcDbLine
 10
6879.136276589335
 20
2837.844991140561
 30
0.0
 11
6911.136276589336
 21
2837.844991140561
 31
0.0
  0
LINE
  5
2376
330
1F
100
AcDbEntity
  8
隠れ線
100
AcDbLine
 10
6911.136276589336
 20
2837.844991140561
 30
0.0
 11
6911.136276589336
 21
2807.844991140561
 31
0.0
  0
LINE
  5
2377
330
1F
100
AcDbEntity
  8
隠れ線
100
AcDbLine
 10
6911.136276589336
 20
2807.844991140561
 30
0.0
 11
6909.536276589337
 21
2807.844991140561
 31
0.0
  0
LINE
  5
2378
330
1F
100
AcDbEntity
  8
隠れ線
100
AcDbLine
 10
6909.536276589337
 20
2807.844991140561
 30
0.0
 11
6909.536276589337
 21
2836.244991140562
 31
0.0
  0
LINE
  5
2379
330
1F
100
AcDbEntity
  8
隠れ線
100
AcDbLine
 10
6909.536276589337
 20
2836.244991140562
 30
0.0
 11
6879.136276589335
 21
2836.244991140562
 31
0.0
  0
LINE
  5
237A
330
1F
100
AcDbEntity
  8
隠れ線
100
AcDbLine
 10
6879.136276589335
 20
2836.244991140562
 30
0.0
 11
6879.136276589335
 21
2837.844991140561
 31
0.0
  0
LINE
  5
237B
330
1F
100
AcDbEntity
  8
隠れ線
100
AcDbLine
 10
6785.53627658934
 20
2807.844986850692
 30
0.0
 11
6787.13627658934
 21
2807.844986850692
 31
0.0
  0
LINE
  5
237C
330
1F
100
AcDbEntity
  8
隠れ線
100
AcDbLine
 10
6785.53627658934
 20
2807.844986850692
 30
0.0
 11
6785.53627658934
 21
2837.844986850692
 31
0.0
  0
LINE
  5
237D
330
1F
100
AcDbEntity
  8
隠れ線
100
AcDbLine
 10
6785.53627658934
 20
2837.844986850692
 30
0.0
 11
6805.536276589339
 21
2837.844986850692
 31
0.0
  0
LINE
  5
237E
330
1F
100
AcDbEntity
  8
隠れ線
100
AcDbLine
 10
6787.13627658934
 20
2807.844986850692
 30
0.0
 11
6787.13627658934
 21
2836.244986850694
 31
0.0
  0
LINE
  5
237F
330
1F
100
AcDbEntity
  8
隠れ線
100
AcDbLine
 10
6787.13627658934
 20
2836.244986850694
 30
0.0
 11
6805.536276589339
 21
2836.244986850694
 31
0.0
  0
LINE
  5
2380
330
1F
100
AcDbEntity
  8
隠れ線
100
AcDbLine
 10
6805.536276589339
 20
2836.244986850694
 30
0.0
 11
6805.536276589339
 21
2837.844986850692
 31
0.0
  0
LINE
  5
2381
330
1F
100
AcDbEntity
  8
外形線
100
AcDbLine
 10
6715.83627658934
 20
2251.344986850693
 30
0.0
 11
6980.83627658934
 21
2251.344986850693
 31
0.0
  0
LINE
  5
2382
330
1F
100
AcDbEntity
  8
外形線
100
AcDbLine
 10
6980.83627658934
 20
2251.344986850693
 30
0.0
 11
6980.83627658934
 21
2248.744986850694
 31
0.0
  0
LINE
  5
2383
330
1F
100
AcDbEntity
  8
外形線
100
AcDbLine
 10
6980.83627658934
 20
2248.744986850694
 30
0.0
 11
6715.83627658934
 21
2248.744986850694
 31
0.0
  0
LINE
  5
2384
330
1F
100
AcDbEntity
  8
外形線
100
AcDbLine
 10
6715.83627658934
 20
2248.744986850694
 30
0.0
 11
6715.83627658934
 21
2251.344986850693
 31
0.0
  0
VIEWPORT
  5
5C0
102
{ACAD_XDICTIONARY
360
5C1
102
}
330
73
100
AcDbEntity
 67
     1
  8
0
100
AcDbViewport
 10
241.7571341007657
 20
89.69659483012604
 30
0.0
 40
431.9518690301577
 41
249.4805544279193
 68
     1
 69
     1
 12
241.7571341007657
 22
89.69659483012604
 13
0.0
 23
0.0
 14
10.0
 24
10.0
 15
10.0
 25
10.0
 16
0.0
 26
0.0
 36
1.0
 17
0.0
 27
0.0
 37
0.0
 42
50.0
 43
0.0
 44
0.0
 45
249.4805544279193
 50
0.0
 51
0.0
 72
  1000
 90
   819232
  1

281
     0
 71
     1
 74
     0
110
0.0
120
0.0
130
0.0
111
1.0
121
0.0
131
0.0
112
0.0
122
1.0
132
0.0
 79
     0
146
0.0
170
     0
  0
VIEWPORT
  5
A52
102
{ACAD_XDICTIONARY
360
A53
102
}
330
73
100
AcDbEntity
 67
     1
  8
vport
100
AcDbViewport
 10
205.7744894330069
 20
144.9825383319055
 30
0.0
 40
407.1956249870703
 41
283.7902670033859
 68
     2
 69
     2
 12
1065.041882888659
 22
846.0360039235776
 13
0.0
 23
0.0
 14
0.5
 24
0.5
 15
0.5
 25
0.5
 16
0.0
 26
0.0
 36
11686.05310089574
 17
5296.091599747877
 27
1793.18674222565
 37
0.0
 42
50.0
 43
0.0
 44
0.0
 45
1462.18294622492
 50
0.0
 51
0.0
 72
  1000
 90
   819296
  1

281
     0
 71
     1
 74
     0
110
0.0
120
0.0
130
0.0
111
1.0
121
0.0
131
0.0
112
0.0
122
1.0
132
0.0
 79
     0
146
0.0
170
     0
  0
ENDSEC
  0
SECTION
  2
OBJECTS
  0
DICTIONARY
  5
C
330
0
100
AcDbDictionary
281
     1
  3
ACAD_CIP_PREVIOUS_PRODUCT_INFO
350
1A2
  3
ACAD_COLOR
350
6C
  3
ACAD_DETAILVIEWSTYLE
350
1A8
  3
ACAD_GROUP
350
D
  3
ACAD_LAYOUT
350
1A
  3
ACAD_MATERIAL
350
6B
  3
ACAD_MLEADERSTYLE
350
D2
  3
ACAD_MLINESTYLE
350
17
  3
ACAD_PLOTSETTINGS
350
19
  3
ACAD_PLOTSTYLENAME
350
E
  3
ACAD_SCALELIST
350
B1
  3
ACAD_SECTIONVIEWSTYLE
350
1A5
  3
ACAD_TABLESTYLE
350
A6
  3
ACAD_VISUALSTYLE
350
95
  3
ACDB_RECOMPOSE_DATA
350
24B1
  3
AcDbVariableDictionary
350
59
  3
AcDsDecomposeData
350
2449
  0
DICTIONARY
  5
18B
330
2
100
AcDbDictionary
280
     1
281
     1
  3
ACAD_LAYERSTATES
360
18C
  3
ACLYDICTIONARY
360
7D1
  0
DICTIONARY
  5
E1
330
10
100
AcDbDictionary
280
     1
281
     1
  0
DICTIONARY
  5
30A
330
309
100
AcDbDictionary
280
     1
281
     1
  0
DICTIONARY
  5
30C
330
30B
100
AcDbDictionary
280
     1
281
     1
  0
DICTIONARY
  5
15A
330
1F
100
AcDbDictionary
280
     1
281
     1
  3
ACAD_SORTENTS
360
8E8
  0
DICTIONARY
  5
5C1
330
5C0
100
AcDbDictionary
280
     1
281
     1
  3
ASDK_XREC_ANNOTATION_SCALE_INFO
360
5C2
  0
DICTIONARY
  5
A53
330
A52
100
AcDbDictionary
280
     1
281
     1
  3
ASDK_XREC_ANNOTATION_SCALE_INFO
360
A54
  0
XRECORD
  5
1A2
102
{ACAD_REACTORS
330
C
102
}
330
C
100
AcDbXrecord
280
     1
300
ACD
300
2012
300
ACD_F_S
  0
DICTIONARY
  5
6C
102
{ACAD_REACTORS
330
C
102
}
330
C
100
AcDbDictionary
281
     1
  0
DICTIONARY
  5
1A8
102
{ACAD_REACTORS
330
C
102
}
330
C
100
AcDbDictionary
281
     1
  3
Imperial24
350
1A9
  3
Metric50
350
189C
  0
DICTIONARY
  5
D
102
{ACAD_REACTORS
330
C
102
}
330
C
100
AcDbDictionary
281
     1
  0
DICTIONARY
  5
1A
102
{ACAD_REACTORS
330
C
102
}
330
C
100
AcDbDictionary
281
     1
  3
Model
350
22
  3
レイアウト1
350
74
  0
DICTIONARY
  5
6B
102
{ACAD_REACTORS
330
C
102
}
330
C
100
AcDbDictionary
281
     1
  3
ByBlock
350
93
  3
ByLayer
350
92
  3
Global
350
94
  0
DICTIONARY
  5
D2
102
{ACAD_REACTORS
330
C
102
}
330
C
100
AcDbDictionary
281
     1
  3
Standard
350
D3
  0
DICTIONARY
  5
17
102
{ACAD_REACTORS
330
C
102
}
330
C
100
AcDbDictionary
281
     1
  3
Standard
350
18
  0
DICTIONARY
  5
19
102
{ACAD_REACTORS
330
C
102
}
330
C
100
AcDbDictionary
281
     1
  3
セットアップ1
350
8B7
  0
ACDBDICTIONARYWDFLT
  5
E
102
{ACAD_REACTORS
330
C
102
}
330
C
100
AcDbDictionary
281
     1
  3
mono
350
1703
  3
Normal
350
F
  3
Style 1
350
318
100
AcDbDictionaryWithDefault
340
F
  0
DICTIONARY
  5
B1
102
{ACAD_REACTORS
330
C
102
}
330
C
100
AcDbDictionary
281
     1
  3
A0
350
B2
  3
A1
350
124
  3
A2
350
125
  3
A3
350
126
  3
A4
350
127
  3
A5
350
128
  3
A6
350
129
  3
A7
350
12A
  3
A8
350
12B
  3
A9
350
12C
  3
B0
350
12D
  3
B1
350
12E
  3
B2
350
12F
  3
B3
350
130
  3
B4
350
131
  3
B5
350
132
  3
B6
350
133
  3
B7
350
134
  3
B8
350
135
  3
B9
350
136
  3
C0
350
137
  3
C1
350
138
  3
C2
350
139
  3
C3
350
13A
  3
C4
350
13B
  3
C5
350
13C
  3
C6
350
13D
  3
C7
350
13E
  3
C8
350
13F
  3
C9
350
140
  3
D0
350
141
  3
D1
350
142
  3
D2
350
143
  0
DICTIONARY
  5
1A5
102
{ACAD_REACTORS
330
C
102
}
330
C
100
AcDbDictionary
281
     1
  3
Imperial24
350
1A7
  3
Metric50
350
189B
  0
DICTIONARY
  5
A6
102
{ACAD_REACTORS
330
C
102
}
330
C
100
AcDbDictionary
281
     1
  3
Standard
350
A7
  0
DICTIONARY
  5
95
102
{ACAD_REACTORS
330
C
102
}
330
C
100
AcDbDictionary
281
     1
  3
2dWireframe
350
9B
  3
Basic
350
9A
  3
Brighten
350
A1
  3
ColorChange
350
A5
  3
Conceptual
350
9E
  3
Dim
350
A0
  3
EdgeColorOff
350
172
  3
Facepattern
350
A4
  3
Flat
350
96
  3
FlatWithEdges
350
97
  3
Gouraud
350
98
  3
GouraudWithEdges
350
99
  3
Hidden
350
9D
  3
JitterOff
350
170
  3
Linepattern
350
A3
  3
OverhangOff
350
171
  3
Realistic
350
9F
  3
Shaded
350
17F
  3
Shaded with edges
350
17E
  3
Shades of Gray
350
17B
  3
Sketchy
350
17C
  3
Thicken
350
A2
  3
Wireframe
350
9C
  3
X-Ray
350
17D
  0
XRECORD
  5
24B1
102
{ACAD_REACTORS
330
C
102
}
330
C
100
AcDbXrecord
280
     1
 90
        1
330
A7
  0
DICTIONARY
  5
59
102
{ACAD_REACTORS
330
C
102
}
330
C
100
AcDbDictionary
281
     1
  3
CAMERAHEIGHT
350
2387
  3
CANNOSCALE
350
EB
  3
CMLEADERSTYLE
350
EA
  3
CTABLESTYLE
350
AB
  3
CVIEWDETAILSTYLE
350
1B4
  3
CVIEWSECTIONSTYLE
350
1B5
  3
DIMASSOC
350
5A
  3
HIDETEXT
350
5E
  3
LAYEREVAL
350
14A
  3
LAYERNOTIFY
350
14B
  3
LIGHTINGUNITS
350
2386
  3
MSLTSCALE
350
2385
  3
XCLIPFRAME
350
24AF
  0
DICTIONARY
  5
2449
102
{ACAD_REACTORS
330
C
102
}
330
C
100
AcDbDictionary
281
     1
  3
AcDsRecords
350
244B
  3
AcDsSchemas
350
244A
1001
ACAD
1070
     2
  0
DICTIONARY
  5
18C
102
{ACAD_REACTORS
330
18B
102
}
330
18B
100
AcDbDictionary
281
     1
  0
DICTIONARY
  5
7D1
102
{ACAD_REACTORS
330
18B
102
}
330
18B
100
AcDbDictionary
281
     1
1001
ACAD
1000
<AllUsed
  0
SORTENTSTABLE
  5
8E8
102
{ACAD_REACTORS
330
15A
102
}
330
15A
100
AcDbSortentsTable
330
1F
331
1B1E
  5
1B68
331
1ADF
  5
1ADF
331
1B55
  5
1BA2
331
1B16
  5
1B50
331
1ADB
  5
1ADB
331
1C16
  5
1C95
331
1B94
  5
1BE1
331
1B12
  5
1B4C
331
1B51
  5
1B9E
331
1BCF
  5
1C2E
331
1C8C
  5
232F
331
1C12
  5
1C91
331
1B90
  5
1BDD
331
1B8C
  5
1BD9
331
22D6
  5
213C
331
1C88
  5
232B
331
1C4D
  5
22D2
331
1BCB
  5
1C25
331
1B88
  5
1BD5
331
1C49
  5
22CD
331
2364
  5
1B63
331
22D2
  5
2134
331
1C84
  5
2327
331
1C02
  5
1C78
331
2360
  5
1C87
331
2325
  5
1B67
331
1C80
  5
2323
331
235C
  5
1C83
331
2321
  5
1B7A
331
2358
  5
1C89
331
1AD7
  5
1AD7
331
1B4D
  5
1B9A
331
1AD3
  5
1AD3
331
1B49
  5
1B96
331
1B0A
  5
1B19
331
1ACF
  5
1ACF
331
1BC7
  5
1C21
331
1B45
  5
1B92
331
1B06
  5
1B13
331
1ACB
  5
1ACB
331
1BC3
  5
1C1C
331
1C45
  5
22C9
331
1B84
  5
1BD1
331
1B41
  5
1B8E
331
1B02
  5
1B0F
331
1BBF
  5
1C18
331
1B80
  5
1BCD
331
1C7C
  5
231F
331
1BFA
  5
1C74
331
1C41
  5
2227
331
1BBB
  5
1C12
331
1B7C
  5
1BC9
331
1C3D
  5
21F2
331
231D
  5
2347
331
1BF6
  5
1C6E
331
1B78
  5
1BC5
331
1C39
  5
21D0
331
1C74
  5
22F2
331
2354
  5
2369
331
2195
  5
2364
331
1BF2
  5
1C67
331
1C70
  5
22EE
331
2350
  5
1C8C
331
234C
  5
219E
331
2348
  5
2383
331
9E9
  5
9EB
331
1B3D
  5
1B8A
331
1AFE
  5
1B06
331
1B39
  5
1B86
331
1AFA
  5
1B02
331
1ABF
  5
1ABF
331
1BB7
  5
1C0D
331
1B35
  5
1B82
331
1BB3
  5
1C09
331
1BEE
  5
1C63
331
1B74
  5
1BC1
331
1B31
  5
1B7E
331
1AF2
  5
1AFE
331
1BAF
  5
1BFC
331
1BEA
  5
1C5F
331
1B70
  5
1BBD
331
1BAB
  5
1BF8
331
1B6C
  5
1BB9
331
1C2D
  5
21A8
331
1C68
  5
22E8
331
1BE6
  5
1C5B
331
1B68
  5
1BB5
331
1C29
  5
212E
331
2344
  5
237F
331
2383
  5
1B0C
331
1C64
  5
22E4
331
1BE2
  5
1C57
331
237F
  5
1B20
331
2340
  5
237B
331
1C60
  5
22E0
331
21E8
  5
2370
331
233C
  5
22FA
331
237B
  5
1B1B
331
22E9
  5
1C7F
331
2338
  5
22FE
331
1AB7
  5
1AB7
331
1AB3
  5
1AB3
331
1AEA
  5
1AFA
331
1AAF
  5
1AAF
331
1BA7
  5
1BF4
331
1B25
  5
1B6F
331
1AE6
  5
1AE6
331
1AAB
  5
1AAB
331
1BA3
  5
1BF0
331
1C25
  5
2124
331
1C9F
  5
2348
331
1BDE
  5
1C50
331
1B64
  5
1BB1
331
1B21
  5
1B6B
331
1AE2
  5
1AE2
331
1B9F
  5
1BEC
331
1B60
  5
1BAD
331
1C9B
  5
2341
331
1BDA
  5
1C4C
331
1C5C
  5
22DE
331
1C21
  5
1C9F
331
1B9B
  5
1BE8
331
1B5C
  5
1BA9
331
2377
  5
1B28
331
22E5
  5
1C7D
331
1C97
  5
233D
331
1BD6
  5
1C47
331
1C1D
  5
1C9C
331
1B58
  5
1BA5
331
1C19
  5
1C98
331
1C93
  5
2339
331
21D0
  5
236E
331
2334
  5
2302
331
2373
  5
1B75
331
22E1
  5
1C7A
331
1C54
  5
22D8
331
1BD2
  5
1C40
331
21BC
  5
236C
331
236F
  5
1B55
331
2330
  5
231D
331
22DD
  5
215F
331
1C50
  5
22D5
331
236B
  5
1B59
331
232C
  5
1AF8
331
22D9
  5
215A
331
2328
  5
1AEC
331
1ADE
  5
1ADE
331
1B97
  5
1BE4
331
1B54
  5
1BA1
331
1B15
  5
1B4F
331
1ADA
  5
1ADA
331
1C8F
  5
2332
331
1C15
  5
1C94
331
1B93
  5
1BE0
331
1B11
  5
1B4B
331
1B50
  5
1B9D
331
1BCE
  5
1C28
331
1C8B
  5
232E
331
1C11
  5
1C90
331
1B8F
  5
1BDC
331
1B8B
  5
1BD8
331
2367
  5
1B5D
331
1C87
  5
232A
331
1C4C
  5
22D1
331
1BCA
  5
1C24
331
1C48
  5
22CC
331
2363
  5
1B61
331
1C83
  5
2326
331
1C01
  5
1C77
331
235F
  5
1C86
331
2324
  5
1B66
331
235B
  5
1C80
331
2320
  5
1B79
331
1AD6
  5
1AD6
331
1B4C
  5
1B99
331
1AD2
  5
1AD2
331
1B48
  5
1B95
331
1B09
  5
1B18
331
1ACE
  5
1ACE
331
1BC6
  5
1C20
331
1B87
  5
1BD4
331
1B44
  5
1B91
331
1B05
  5
1B12
331
1ACA
  5
1ACA
331
1BC2
  5
1C1B
331
1C7F
  5
2322
331
1C44
  5
22C8
331
1B83
  5
1BD0
331
1B40
  5
1B8D
331
1BBE
  5
1C17
331
1B7F
  5
1BCC
331
1BF9
  5
1C71
331
1C40
  5
2226
331
1B7B
  5
1BC8
331
1C3C
  5
21E9
331
1C77
  5
22F5
331
2357
  5
1C88
331
231C
  5
2346
331
1BF5
  5
1C6D
331
1BBA
  5
1C11
331
1C38
  5
21B3
331
1C73
  5
22F1
331
2353
  5
1C8F
331
2194
  5
2363
331
1BF1
  5
1C66
331
234F
  5
218B
331
234B
  5
2195
331
1B3C
  5
1B89
331
1AFD
  5
1B05
331
1AC2
  5
1AC2
331
1B38
  5
1B85
331
1AF9
  5
1B01
331
1ABE
  5
1ABE
331
1B77
  5
1BC4
331
1BB6
  5
1C0C
331
1B34
  5
1B81
331
1ABA
  5
1ABA
331
1BB2
  5
1C03
331
1C6F
  5
22ED
331
1BED
  5
1C62
331
1B73
  5
1BC0
331
1B30
  5
1B7D
331
1BAE
  5
1BFB
331
1BE9
  5
1C5E
331
1B6F
  5
1BBC
331
1BAA
  5
1BF7
331
1B6B
  5
1BB8
331
2347
  5
2382
331
21F3
  5
2373
331
1C67
  5
22E7
331
1BE5
  5
1C5A
331
1C28
  5
212D
331
2343
  5
237E
331
2382
  5
1B0B
331
1C63
  5
22E3
331
1BE1
  5
1C53
331
237E
  5
1B1F
331
233F
  5
237A
331
233B
  5
22F9
331
237A
  5
1B48
331
9E0
  5
9E2
331
1AB6
  5
1AB6
331
1AED
  5
1AFD
331
1AB2
  5
1AB2
331
1B28
  5
1B72
331
1AAE
  5
1AAE
331
1B67
  5
1BB4
331
1BA6
  5
1BF3
331
1B24
  5
1B6E
331
1AE5
  5
1AE5
331
1AAA
  5
1AAA
331
1BA2
  5
1BEF
331
1C24
  5
2122
331
1BDD
  5
1C4F
331
1B63
  5
1BB0
331
1AE1
  5
1AE1
331
1B20
  5
1B6A
331
1B9E
  5
1BEB
331
1B5F
  5
1BAC
331
1C9A
  5
2340
331
1BD9
  5
1C4A
331
1C5B
  5
22DD
331
1C20
  5
1C9E
331
1B9A
  5
1BE7
331
1B5B
  5
1BA8
331
1C1C
  5
1C9B
331
2337
  5
22FD
331
2376
  5
1B27
331
1C96
  5
233C
331
1BD5
  5
1C46
331
1C18
  5
1C97
331
1C92
  5
2335
331
2333
  5
2301
331
2372
  5
1B74
331
22E0
  5
217A
331
1C53
  5
22D7
331
1BD1
  5
1C3F
331
236E
  5
1B54
331
232F
  5
231C
331
22DC
  5
215E
331
236A
  5
1B58
331
232B
  5
1AF7
331
22D8
  5
2158
331
1ADD
  5
1ADD
331
1B57
  5
1BA4
331
1B96
  5
1BE3
331
1B18
  5
1B52
331
1AD9
  5
1AD9
331
1C8E
  5
2331
331
1C14
  5
1C93
331
1B92
  5
1BDF
331
1B14
  5
1B4E
331
1B53
  5
1BA0
331
1BCD
  5
1C27
331
1B8E
  5
1BDB
331
1C8A
  5
232D
331
1C4F
  5
22D4
331
1B10
  5
1B4A
331
1B8A
  5
1BD7
331
2366
  5
1B5C
331
22D4
  5
2136
331
1C86
  5
2329
331
1C4B
  5
22D0
331
1BC9
  5
1C23
331
2327
  5
1AEB
331
21B3
  5
236B
331
2362
  5
1B60
331
22D0
  5
21A7
331
1C82
  5
2325
331
235E
  5
1C85
331
2323
  5
1B65
331
235A
  5
1C8B
331
1AD5
  5
1AD5
331
1B4F
  5
1B9C
331
1AD1
  5
1AD1
331
1B4B
  5
1B98
331
1ACD
  5
1ACD
331
1B47
  5
1B94
331
1BC5
  5
1C1F
331
1C47
  5
22CB
331
1B86
  5
1BD3
331
1B08
  5
1B17
331
1AC9
  5
1AC9
331
1B43
  5
1B90
331
1BC1
  5
1C1A
331
1B82
  5
1BCF
331
219F
  5
2366
331
1C7E
  5
2321
331
1BFC
  5
1C76
331
1C43
  5
222B
331
1B04
  5
1B11
331
1BBD
  5
1C16
331
1B7E
  5
1BCB
331
231F
  5
1B78
331
1BF8
  5
1C70
331
1C3F
  5
2225
331
1B00
  5
1B08
331
1B7A
  5
1BC7
331
1C3B
  5
21E8
331
1BF4
  5
1C69
331
1BB9
  5
1C10
331
2356
  5
2367
331
231B
  5
2345
331
1C76
  5
22F4
331
1BF0
  5
1C65
331
2352
  5
1C8E
331
1C72
  5
22F0
331
234E
  5
218A
331
234A
  5
2194
331
1B3F
  5
1B8C
331
1B3B
  5
1B88
331
1AFC
  5
1B04
331
1AC1
  5
1AC1
331
1B37
  5
1B84
331
1BB5
  5
1C0B
331
1C37
  5
21B2
331
1B76
  5
1BC3
331
1AF8
  5
1B00
331
1BB1
  5
1C02
331
1BEC
  5
1C61
331
1B72
  5
1BBF
331
1C6E
  5
22EC
331
1B33
  5
1B80
331
1AB9
  5
1AB9
331
1BAD
  5
1BFA
331
1BE8
  5
1C5D
331
1B6E
  5
1BBB
331
218B
  5
2362
331
1C6A
  5
22EA
331
1B6A
  5
1BB7
331
2346
  5
2381
331
21F2
  5
2372
331
1C66
  5
22E6
331
1BE4
  5
1C59
331
1BA9
  5
1BF6
331
1CA1
  5
234A
331
2342
  5
237D
331
2381
  5
1B0A
331
217B
  5
2360
331
1C62
  5
22E2
331
1BE0
  5
1C52
331
237D
  5
1B1E
331
233E
  5
2379
331
233A
  5
22F8
331
2379
  5
1B47
331
1B2F
  5
1B7C
331
1AB5
  5
1AB5
331
1AEC
  5
1AFC
331
1AB1
  5
1AB1
331
1B66
  5
1BB3
331
1C27
  5
2126
331
1BA5
  5
1BF2
331
1B27
  5
1B71
331
1AAD
  5
1AAD
331
1B23
  5
1B6D
331
1BA1
  5
1BEE
331
1C23
  5
1CA1
331
1C9D
  5
2343
331
1BDC
  5
1C4E
331
1B62
  5
1BAF
331
1AE4
  5
1AE4
331
1AA9
  5
1AA9
331
1B9D
  5
1BEA
331
1B5E
  5
1BAB
331
1C99
  5
233F
331
1BD8
  5
1C49
331
1C5A
  5
22DC
331
1C1F
  5
1C9D
331
1AE0
  5
1AE0
331
1B99
  5
1BE6
331
1B5A
  5
1BA7
331
1C1B
  5
1C9A
331
1C95
  5
233B
331
2375
  5
1B26
331
22E3
  5
1C7C
331
1C56
  5
22DA
331
1BD4
  5
1C45
331
2336
  5
22FC
331
1C91
  5
2334
331
2371
  5
1B73
331
22DF
  5
2169
331
1C52
  5
22D6
331
1BD0
  5
1C34
331
2332
  5
2300
331
22DB
  5
215C
331
236D
  5
1B53
331
232E
  5
231B
331
2369
  5
1B57
331
232A
  5
1AF2
331
1B1F
  5
1B69
331
1B56
  5
1BA3
331
1C17
  5
1C96
331
1B95
  5
1BE2
331
1B17
  5
1B51
331
1ADC
  5
1ADC
331
1C8D
  5
2330
331
1C13
  5
1C92
331
1B91
  5
1BDE
331
1B13
  5
1B4D
331
1B52
  5
1B9F
331
1AD8
  5
1AD8
331
1BCC
  5
1C26
331
1B8D
  5
1BDA
331
22D7
  5
2151
331
1C89
  5
232C
331
1C4E
  5
22D3
331
1B89
  5
1BD6
331
1C4A
  5
22CE
331
1C85
  5
2328
331
1C03
  5
1C79
331
1BC8
  5
1C22
331
2365
  5
1B5B
331
21B2
  5
236A
331
1C81
  5
2324
331
22CF
  5
219F
331
2361
  5
1B5F
331
2326
  5
1AEA
331
235D
  5
1C84
331
2322
  5
1B64
331
2359
  5
1C8A
331
1B4E
  5
1B9B
331
1B0F
  5
1B49
331
1AD4
  5
1AD4
331
1B4A
  5
1B97
331
1B0B
  5
1B1A
331
1AD0
  5
1AD0
331
1B46
  5
1B93
331
1BC4
  5
1C1D
331
1C46
  5
22CA
331
1B85
  5
1BD2
331
1B07
  5
1B14
331
1ACC
  5
1ACC
331
1B42
  5
1B8F
331
1BC0
  5
1C19
331
1B81
  5
1BCE
331
1C7D
  5
2320
331
1BFB
  5
1C75
331
1C42
  5
2229
331
1B03
  5
1B10
331
1AC8
  5
1AC8
331
219E
  5
2365
331
1BBC
  5
1C15
331
1B7D
  5
1BCA
331
1C3E
  5
21F3
331
1BF7
  5
1C6F
331
231E
  5
1B77
331
1B79
  5
1BC6
331
1C3A
  5
21D1
331
1BF3
  5
1C68
331
1BB8
  5
1C0E
331
1C75
  5
22F3
331
2355
  5
2368
331
231A
  5
2344
331
1C71
  5
22EF
331
2351
  5
1C8D
331
234D
  5
217B
331
2349
  5
2384
331
9F2
  5
9F4
331
1B3E
  5
1B8B
331
1AFF
  5
1B07
331
1B3A
  5
1B87
331
1AFB
  5
1B03
331
1B36
  5
1B83
331
1BB4
  5
1C0A
331
1C36
  5
21A9
331
1BEF
  5
1C64
331
1B75
  5
1BC2
331
1AF7
  5
1AFF
331
1ABC
  5
1ABC
331
1BB0
  5
1C01
331
1BEB
  5
1C60
331
1B71
  5
1BBE
331
1C6D
  5
22EB
331
1B32
  5
1B7F
331
1BAC
  5
1BF9
331
1BE7
  5
1C5C
331
1B6D
  5
1BBA
331
1C69
  5
22E9
331
218A
  5
2361
331
1B69
  5
1BB6
331
1C65
  5
22E5
331
1BE3
  5
1C58
331
1BA8
  5
1BF5
331
2345
  5
2380
331
2384
  5
1B0D
331
1CA0
  5
2349
331
1C61
  5
22E1
331
2341
  5
237C
331
2380
  5
1B21
331
217A
  5
235F
331
233D
  5
22FB
331
237C
  5
1B1C
331
21E9
  5
2371
331
2339
  5
22FF
331
2378
  5
1B2A
331
1B2E
  5
1B7B
331
1AEB
  5
1AFB
331
1AB0
  5
1AB0
331
1BA4
  5
1BF1
331
1C26
  5
2125
331
1BDF
  5
1C51
331
1B65
  5
1BB2
331
1B26
  5
1B70
331
1AAC
  5
1AAC
331
1B22
  5
1B6C
331
1BA0
  5
1BED
331
1C22
  5
1CA0
331
1BDB
  5
1C4D
331
1B61
  5
1BAE
331
1AE3
  5
1AE3
331
1C5D
  5
22DF
331
1C9C
  5
2342
331
1B9C
  5
1BE9
331
1BD7
  5
1C48
331
1B5D
  5
1BAA
331
1C59
  5
22DB
331
22E6
  5
1C7E
331
1C98
  5
233E
331
1B59
  5
1BA6
331
1C1A
  5
1C99
331
1BD3
  5
1C43
331
1B98
  5
1BE5
331
1C55
  5
22D9
331
21D1
  5
236F
331
2335
  5
231A
331
2374
  5
1B76
331
22E2
  5
1C7B
331
1C94
  5
233A
331
21BD
  5
236D
331
2331
  5
231E
331
2370
  5
1B56
331
22DE
  5
2161
331
1C90
  5
2333
331
236C
  5
1B5A
331
232D
  5
1AF9
331
22DA
  5
215B
331
2368
  5
1B5E
331
2329
  5
1AED
  0
XRECORD
  5
5C2
102
{ACAD_REACTORS
330
5C1
102
}
330
5C1
100
AcDbXrecord
280
     1
 90
        1
340
B2
  0
XRECORD
  5
A54
102
{ACAD_REACTORS
330
A53
102
}
330
A53
100
AcDbXrecord
280
     1
 90
        1
340
B2
  0
ACDBDETAILVIEWSTYLE
  5
1A9
102
{ACAD_XDICTIONARY
360
1C3
102
}
102
{ACAD_REACTORS
330
1A8
102
}
330
1A8
100
AcDbModelDocViewStyle
 70
     0
  3
Imperial24
290
     0
100
AcDbDetailViewStyle
 70
     0
 71
     0
 90
        3
 71
     1
340
11
 62
   256
 40
0.24
340
0
 62
   256
 40
0.24
300

 40
0.36
280
     3
 71
     2
340
16
 90
       25
 62
   256
 71
     3
340
11
 62
   256
 40
0.24
 90
        1
 40
0.75
 90
        1
300
%<\AcVar ViewType \f "%tc1">% %<\AcVar ViewDetailId>%\PSCALE %<\AcVar ViewScale \f "%sn">%
 71
     4
340
16
 90
       25
 62
   256
340
16
 90
       25
 62
   256
280
     0
  0
ACDBDETAILVIEWSTYLE
  5
189C
102
{ACAD_XDICTIONARY
360
2484
102
}
102
{ACAD_REACTORS
330
1A8
102
}
330
1A8
100
AcDbModelDocViewStyle
 70
     0
  3
Metric50
290
     0
100
AcDbDetailViewStyle
 70
     0
 71
     0
 90
        3
 71
     1
340
11
 62
   256
 40
5.0
340
0
 62
   256
 40
5.0
300

 40
0.0
280
     1
 71
     2
340
16
 90
       25
 62
   256
 71
     3
340
11
 62
   256
 40
5.0
 90
        0
 40
15.0
 90
        1
300
%<\AcVar ViewDetailId>% (%<\AcVar ViewScale \f "%sn">%)
 71
     4
340
16
 90
       25
 62
   256
340
16
 90
       25
 62
   256
280
     0
  0
LAYOUT
  5
22
102
{ACAD_XDICTIONARY
360
191
102
}
102
{ACAD_REACTORS
330
1A
102
}
330
1A
100
AcDbPlotSettings
  1

  2
none_device
  4
Letter_(8.50_x_11.00_Inches)
  6

 40
6.349999904632567
 41
6.349999904632567
 42
6.350006103515625
 43
6.350006103515625
 44
215.8999938964844
 45
279.3999938964844
 46
0.0
 47
0.0
 48
0.0
 49
0.0
140
0.0
141
0.0
142
1.0
143
3.560208697428376
 70
 11952
 72
     0
 73
     1
 74
     0
  7
monochrome.stb
 75
     0
147
0.28088241027059
 76
     0
 77
     2
 78
   300
148
0.1311165230791651
149
0.096403374003771
100
AcDbLayout
  1
Model
 70
     1
 71
     0
 10
0.0
 20
0.0
 11
12.0
 21
9.0
 12
0.0
 22
0.0
 32
0.0
 14
0.0
 24
0.0
 34
0.0
 15
0.0
 25
0.0
 35
0.0
146
0.0
 13
0.0
 23
0.0
 33
0.0
 16
1.0
 26
0.0
 36
0.0
 17
0.0
 27
1.0
 37
0.0
 76
     0
330
1F
331
90
  0
LAYOUT
  5
74
102
{ACAD_REACTORS
330
1A
102
}
330
1A
100
AcDbPlotSettings
  1

  2
EPSON PX-1200.pc3
  4
A3
  6

 40
3.757083177566528
 41
3.757080078125
 42
3.757110595703125
 43
3.757080078125
 44
420.0172424316406
 45
296.9683227539062
 46
0.0
 47
0.0
 48
0.0
 49
0.0
140
0.0
141
0.0
142
1.0
143
1.0
 70
   672
 72
     1
 73
     0
 74
     5
  7
monochrome.stb
 75
    16
147
25.4
 76
     0
 77
     2
 78
   300
148
0.0
149
0.0
100
AcDbLayout
  1
レイアウト1
 70
     1
 71
     1
 10
-3.757083177566528
 20
-3.757080078125
 11
416.2601592540741
 21
293.2112426757813
 12
0.0
 22
0.0
 32
0.0
 14
2.17667693947169
 24
3.087404830212562
 34
0.0
 15
409.3723019265421
 25
286.8776718335985
 35
0.0
146
0.0
 13
0.0
 23
0.0
 33
0.0
 16
1.0
 26
0.0
 36
0.0
 17
0.0
 27
1.0
 37
0.0
 76
     0
330
73
331
5C0
1001
ACAD_PSEXT
1000
EPSON PX-1200.pc3
1000
EPSON PX-1200
1000
EP_192.168.0.240
1000

1070
     0
  0
MATERIAL
  5
93
102
{ACAD_XDICTIONARY
360
185
102
}
102
{ACAD_REACTORS
330
6B
102
}
330
6B
100
AcDbMaterial
  1
ByBlock
  0
MATERIAL
  5
92
102
{ACAD_XDICTIONARY
360
183
102
}
102
{ACAD_REACTORS
330
6B
102
}
330
6B
100
AcDbMaterial
  1
ByLayer
  0
MATERIAL
  5
94
102
{ACAD_XDICTIONARY
360
10B
102
}
102
{ACAD_REACTORS
330
6B
102
}
330
6B
100
AcDbMaterial
  1
Global
 43
0.0208000000566244
 43
0.0
 43
0.0
 43
0.0
 43
0.0
 43
0.0208000000566244
 43
0.0
 43
0.0
 43
0.0
 43
0.0
 43
1.0
 43
0.0
 43
0.0
 43
0.0
 43
0.0
 43
1.0
 49
0.0208000000566244
 49
0.0
 49
0.0
 49
0.0
 49
0.0
 49
0.0208000000566244
 49
0.0
 49
0.0
 49
0.0
 49
0.0
 49
1.0
 49
0.0
 49
0.0
 49
0.0
 49
0.0
 49
1.0
142
0.0208000000566244
142
0.0
142
0.0
142
0.0
142
0.0
142
0.0208000000566244
142
0.0
142
0.0
142
0.0
142
0.0
142
1.0
142
0.0
142
0.0
142
0.0
142
0.0
142
1.0
144
0.0208000000566244
144
0.0
144
0.0
144
0.0
144
0.0
144
0.0208000000566244
144
0.0
144
0.0
144
0.0
144
0.0
144
1.0
144
0.0
144
0.0
144
0.0
144
0.0
144
1.0
1001
ACAD
1070
    -1
1070
     3
1070
     0
1000

1071
        0
1070
     0
  0
MLEADERSTYLE
  5
D3
102
{ACAD_REACTORS
330
D2
102
}
330
D2
100
AcDbMLeaderStyle
170
     2
171
     1
172
     0
 90
        2
 40
0.0
 41
0.0
173
     1
 91
-1023410175
340
15
 92
        5
290
     1
 42
0.1
291
     1
 43
-0.36
  3
Standard
 44
20.0
300

342
310
174
     6
178
     6
175
     1
176
     0
 93
-1023410170
 45
20.0
292
     0
297
     0
 46
0.18
 94
-1056964608
 47
1.0
 49
1.0
140
1.0
293
     1
141
0.0
294
     1
177
     0
142
1.0
295
     0
296
     0
143
0.125
1001
ACAD_MLEADERVER
1070
     2
  0
MLINESTYLE
  5
18
102
{ACAD_REACTORS
330
17
102
}
330
17
100
AcDbMlineStyle
  2
STANDARD
 70
     0
  3

 62
   256
 51
90.0
 52
90.0
 71
     2
 49
0.5
 62
   256
  6
BYLAYER
 49
-0.5
 62
   256
  6
BYLAYER
  0
PLOTSETTINGS
  5
8B7
102
{ACAD_REACTORS
330
19
102
}
330
19
100
AcDbPlotSettings
  1
セットアップ1
  2
EPSON PX-1200(A3→A4).pc3
  4
A3
  6

 40
3.174999952316283
 41
3.174999952316283
 42
3.17498779296875
 43
3.17498779296875
 44
419.9740905761719
 45
296.8817749023438
 46
0.0
 47
0.0
 48
0.0
 49
0.0
140
0.0
141
0.0
142
1.0
143
1.0
 70
  2720
 72
     1
 73
     0
 74
     5
  7

 75
    16
147
25.4
 76
     0
 77
     2
 78
   300
148
0.0
149
0.0
1001
ACAD_PSEXT
1000
EPSON PX-1200(A3→A4).pc3
1000
EPSON PX-1200
1000
EP_192.168.0.240
1000

1070
     0
  0
ACDBPLACEHOLDER
  5
1703
102
{ACAD_REACTORS
330
E
102
}
330
E
  0
ACDBPLACEHOLDER
  5
F
102
{ACAD_REACTORS
330
E
102
}
330
E
  0
ACDBPLACEHOLDER
  5
318
102
{ACAD_REACTORS
330
E
102
}
330
E
  0
SCALE
  5
B2
102
{ACAD_REACTORS
330
B1
102
}
330
B1
100
AcDbScale
 70
     0
300
1:1
140
1.0
141
1.0
290
     1
  0
SCALE
  5
124
102
{ACAD_REACTORS
330
B1
102
}
330
B1
100
AcDbScale
 70
     0
300
1:2
140
1.0
141
2.0
290
     0
  0
SCALE
  5
125
102
{ACAD_REACTORS
330
B1
102
}
330
B1
100
AcDbScale
 70
     0
300
1:4
140
1.0
141
4.0
290
     0
  0
SCALE
  5
126
102
{ACAD_REACTORS
330
B1
102
}
330
B1
100
AcDbScale
 70
     0
300
1:5
140
1.0
141
5.0
290
     0
  0
SCALE
  5
127
102
{ACAD_REACTORS
330
B1
102
}
330
B1
100
AcDbScale
 70
     0
300
1:8
140
1.0
141
8.0
290
     0
  0
SCALE
  5
128
102
{ACAD_REACTORS
330
B1
102
}
330
B1
100
AcDbScale
 70
     0
300
1:10
140
1.0
141
10.0
290
     0
  0
SCALE
  5
129
102
{ACAD_REACTORS
330
B1
102
}
330
B1
100
AcDbScale
 70
     0
300
1:16
140
1.0
141
16.0
290
     0
  0
SCALE
  5
12A
102
{ACAD_REACTORS
330
B1
102
}
330
B1
100
AcDbScale
 70
     0
300
1:20
140
1.0
141
20.0
290
     0
  0
SCALE
  5
12B
102
{ACAD_REACTORS
330
B1
102
}
330
B1
100
AcDbScale
 70
     0
300
1:30
140
1.0
141
30.0
290
     0
  0
SCALE
  5
12C
102
{ACAD_REACTORS
330
B1
102
}
330
B1
100
AcDbScale
 70
     0
300
1:40
140
1.0
141
40.0
290
     0
  0
SCALE
  5
12D
102
{ACAD_REACTORS
330
B1
102
}
330
B1
100
AcDbScale
 70
     0
300
1:50
140
1.0
141
50.0
290
     0
  0
SCALE
  5
12E
102
{ACAD_REACTORS
330
B1
102
}
330
B1
100
AcDbScale
 70
     0
300
1:100
140
1.0
141
100.0
290
     0
  0
SCALE
  5
12F
102
{ACAD_REACTORS
330
B1
102
}
330
B1
100
AcDbScale
 70
     0
300
2:1
140
2.0
141
1.0
290
     0
  0
SCALE
  5
130
102
{ACAD_REACTORS
330
B1
102
}
330
B1
100
AcDbScale
 70
     0
300
4:1
140
4.0
141
1.0
290
     0
  0
SCALE
  5
131
102
{ACAD_REACTORS
330
B1
102
}
330
B1
100
AcDbScale
 70
     0
300
8:1
140
8.0
141
1.0
290
     0
  0
SCALE
  5
132
102
{ACAD_REACTORS
330
B1
102
}
330
B1
100
AcDbScale
 70
     0
300
10:1
140
10.0
141
1.0
290
     0
  0
SCALE
  5
133
102
{ACAD_REACTORS
330
B1
102
}
330
B1
100
AcDbScale
 70
     0
300
100:1
140
100.0
141
1.0
290
     0
  0
SCALE
  5
134
102
{ACAD_REACTORS
330
B1
102
}
330
B1
100
AcDbScale
 70
     0
300
1/128" = 1'-0"
140
0.0078125
141
12.0
290
     0
  0
SCALE
  5
135
102
{ACAD_REACTORS
330
B1
102
}
330
B1
100
AcDbScale
 70
     0
300
1/64" = 1'-0"
140
0.015625
141
12.0
290
     0
  0
SCALE
  5
136
102
{ACAD_REACTORS
330
B1
102
}
330
B1
100
AcDbScale
 70
     0
300
1/32" = 1'-0"
140
0.03125
141
12.0
290
     0
  0
SCALE
  5
137
102
{ACAD_REACTORS
330
B1
102
}
330
B1
100
AcDbScale
 70
     0
300
1/16" = 1'-0"
140
0.0625
141
12.0
290
     0
  0
SCALE
  5
138
102
{ACAD_REACTORS
330
B1
102
}
330
B1
100
AcDbScale
 70
     0
300
3/32" = 1'-0"
140
0.09375
141
12.0
290
     0
  0
SCALE
  5
139
102
{ACAD_REACTORS
330
B1
102
}
330
B1
100
AcDbScale
 70
     0
300
1/8" = 1'-0"
140
0.125
141
12.0
290
     0
  0
SCALE
  5
13A
102
{ACAD_REACTORS
330
B1
102
}
330
B1
100
AcDbScale
 70
     0
300
3/16" = 1'-0"
140
0.1875
141
12.0
290
     0
  0
SCALE
  5
13B
102
{ACAD_REACTORS
330
B1
102
}
330
B1
100
AcDbScale
 70
     0
300
1/4" = 1'-0"
140
0.25
141
12.0
290
     0
  0
SCALE
  5
13C
102
{ACAD_REACTORS
330
B1
102
}
330
B1
100
AcDbScale
 70
     0
300
3/8" = 1'-0"
140
0.375
141
12.0
290
     0
  0
SCALE
  5
13D
102
{ACAD_REACTORS
330
B1
102
}
330
B1
100
AcDbScale
 70
     0
300
1/2" = 1'-0"
140
0.5
141
12.0
290
     0
  0
SCALE
  5
13E
102
{ACAD_REACTORS
330
B1
102
}
330
B1
100
AcDbScale
 70
     0
300
3/4" = 1'-0"
140
0.75
141
12.0
290
     0
  0
SCALE
  5
13F
102
{ACAD_REACTORS
330
B1
102
}
330
B1
100
AcDbScale
 70
     0
300
1" = 1'-0"
140
1.0
141
12.0
290
     0
  0
SCALE
  5
140
102
{ACAD_REACTORS
330
B1
102
}
330
B1
100
AcDbScale
 70
     0
300
1-1/2" = 1'-0"
140
1.5
141
12.0
290
     0
  0
SCALE
  5
141
102
{ACAD_REACTORS
330
B1
102
}
330
B1
100
AcDbScale
 70
     0
300
3" = 1'-0"
140
3.0
141
12.0
290
     0
  0
SCALE
  5
142
102
{ACAD_REACTORS
330
B1
102
}
330
B1
100
AcDbScale
 70
     0
300
6" = 1'-0"
140
6.0
141
12.0
290
     0
  0
SCALE
  5
143
102
{ACAD_REACTORS
330
B1
102
}
330
B1
100
AcDbScale
 70
     0
300
1'-0" = 1'-0"
140
12.0
141
12.0
290
     0
  0
ACDBSECTIONVIEWSTYLE
  5
1A7
102
{ACAD_XDICTIONARY
360
1C1
102
}
102
{ACAD_REACTORS
330
1A5
102
}
330
1A5
100
AcDbModelDocViewStyle
 70
     0
  3
Imperial24
290
     0
100
AcDbSectionViewStyle
 70
     0
 71
     0
 90
       78
 71
     1
340
11
 62
   256
 40
0.24
340
0
340
0
 62
   256
 40
0.24
300
I, O, Q, S, X, Z
 40
0.48
 90
        3
 40
0.18
 90
        1
 71
     2
340
16
 90
       25
 62
   256
340
16
 90
       50
 62
   256
 40
0.24
 40
0.0
 40
0.24
 71
     3
340
11
 62
   256
 40
0.24
 90
        1
 40
0.75
 90
        1
300
%<\AcVar ViewType \f "%tc1">% %<\AcVar ViewSectionStartId>%-%<\AcVar ViewSectionEndId>%\PSCALE %<\AcVar ViewScale \f "%sn">%
 71
     4
 62
   256
 62
   257
300
ANSI31
 40
1.0
 90
        0
290
     0
290
     0
 90
        6
 40
0.0
 40
1.570796326794896
 40
0.2617993877991494
 40
1.308996938995747
 40
-0.2617993877991494
 40
1.832595714594045
  0
ACDBSECTIONVIEWSTYLE
  5
189B
102
{ACAD_XDICTIONARY
360
2482
102
}
102
{ACAD_REACTORS
330
1A5
102
}
330
1A5
100
AcDbModelDocViewStyle
 70
     0
  3
Metric50
290
     0
100
AcDbSectionViewStyle
 70
     0
 71
     0
 90
      102
 71
     1
340
11
 62
   256
 40
5.0
340
0
340
0
 62
   256
 40
5.0
300
I, O, Q, S, X, Z
 40
10.0
 90
        0
 40
2.5
 90
        0
 71
     2
340
16
 90
       25
 62
   256
340
16
 90
       50
 62
   256
 40
5.0
 40
2.5
 40
5.0
 71
     3
340
11
 62
   256
 40
5.0
 90
        0
 40
15.0
 90
        1
300
%<\AcVar ViewSectionStartId>%-%<\AcVar ViewSectionEndId>% (%<\AcVar ViewScale \f "%sn">%)
 71
     4
 62
   256
 62
   257
300
ANSI31
 40
1.0
 90
        0
290
     0
290
     0
 90
        6
 40
0.0
 40
1.570796326794896
 40
0.2617993877991494
 40
1.308996938995747
 40
-0.2617993877991494
 40
1.832595714594045
  0
TABLESTYLE
  5
A7
102
{ACAD_XDICTIONARY
360
FF
102
}
102
{ACAD_REACTORS
330
A6
102
}
330
A6
100
AcDbTableStyle
  3
Standard
 70
     0
 71
     0
 40
0.06
 41
0.06
280
     0
281
     0
  7
Standard
140
0.18
170
     2
 62
     0
 63
     7
283
     0
274
    -2
284
     1
 64
     0
275
    -2
285
     1
 65
     0
276
    -2
286
     1
 66
     0
277
    -2
287
     1
 67
     0
278
    -2
288
     1
 68
     0
279
    -2
289
     1
 69
     0
  7
Standard
140
0.25
170
     5
 62
     0
 63
     7
283
     0
274
    -2
284
     1
 64
     0
275
    -2
285
     1
 65
     0
276
    -2
286
     1
 66
     0
277
    -2
287
     1
 67
     0
278
    -2
288
     1
 68
     0
279
    -2
289
     1
 69
     0
  7
Standard
140
0.18
170
     5
 62
     0
 63
     7
283
     0
274
    -2
284
     1
 64
     0
275
    -2
285
     1
 65
     0
276
    -2
286
     1
 66
     0
277
    -2
287
     1
 67
     0
278
    -2
288
     1
 68
     0
279
    -2
289
     1
 69
     0
  0
VISUALSTYLE
  5
9B
102
{ACAD_XDICTIONARY
360
2459
102
}
102
{ACAD_REACTORS
330
95
102
}
330
95
100
AcDbVisualStyle
  2

 70
     4
 71
     0
 72
     2
 73
     1
 90
        0
 40
-0.6
 41
-30.0
 62
     5
 63
     7
421
 16777215
 74
     1
 91
        4
 64
     7
 65
   257
 75
     1
175
     1
 42
1.0
 92
        0
 66
   257
 43
1.0
 76
     1
 77
     6
 78
     2
 67
     7
 79
     5
170
     0
171
     0
290
     0
174
     0
 93
        1
 44
0.0
173
     0
291
     0
 45
0.0
1001
ACAD
1000
AcDbSavedByObjectVersion
1070
     0
  0
VISUALSTYLE
  5
9A
102
{ACAD_XDICTIONARY
360
2457
102
}
102
{ACAD_REACTORS
330
95
102
}
330
95
100
AcDbVisualStyle
  2

 70
     7
 71
     1
 72
     0
 73
     1
 90
        0
 40
-0.6
 41
-30.0
 62
     5
 63
     7
421
 16777215
 74
     0
 91
        4
 64
     7
 65
   257
 75
     1
175
     1
 42
1.0
 92
        8
 66
     7
 43
1.0
 76
     1
 77
     6
 78
     2
 67
     7
 79
     5
170
     0
171
     0
290
     0
174
     0
 93
        1
 44
0.0
173
     0
291
     1
 45
0.0
1001
ACAD
1000
AcDbSavedByObjectVersion
1070
     0
  0
VISUALSTYLE
  5
A1
102
{ACAD_XDICTIONARY
360
2465
102
}
102
{ACAD_REACTORS
330
95
102
}
330
95
100
AcDbVisualStyle
  2

 70
    12
 71
     2
 72
     2
 73
     1
 90
        0
 40
-0.6
 41
-30.0
 62
     5
 63
     7
421
 16777215
 74
     1
 91
        4
 64
     7
 65
   257
 75
     1
175
     1
 42
1.0
 92
        8
 66
     7
 43
1.0
 76
     1
 77
     6
 78
     2
 67
     7
 79
     5
170
     0
171
     0
290
     0
174
     0
 93
        1
 44
50.0
173
     0
291
     1
 45
0.0
1001
ACAD
1000
AcDbSavedByObjectVersion
1070
     0
  0
VISUALSTYLE
  5
A5
102
{ACAD_XDICTIONARY
360
246D
102
}
102
{ACAD_REACTORS
330
95
102
}
330
95
100
AcDbVisualStyle
  2

 70
    16
 71
     2
 72
     2
 73
     3
 90
        0
 40
-0.6
 41
-30.0
 62
     5
 63
     8
421
  8421504
 74
     1
 91
        4
 64
     7
 65
   257
 75
     1
175
     1
 42
1.0
 92
        8
 66
     8
424
  8421504
 43
1.0
 76
     1
 77
     6
 78
     2
 67
     7
 79
     5
170
     0
171
     0
290
     0
174
     0
 93
        1
 44
0.0
173
     0
291
     1
 45
0.0
1001
ACAD
1000
AcDbSavedByObjectVersion
1070
     0
  0
VISUALSTYLE
  5
9E
102
{ACAD_XDICTIONARY
360
245F
102
}
102
{ACAD_REACTORS
330
95
102
}
330
95
100
AcDbVisualStyle
  2

 70
     9
 71
     3
 72
     2
 73
     1
 90
        0
 40
-0.6
 41
-30.0
 62
     5
 63
     7
421
 16777215
 74
     2
 91
        2
 64
     7
 65
   257
 75
     1
175
     1
 42
40.0
 92
        8
 66
     7
 43
1.0
 76
     1
 77
     6
 78
     2
 67
     7
 79
     3
170
     0
171
     0
290
     0
174
     0
 93
        1
 44
0.0
173
     0
291
     0
 45
0.0
1001
ACAD
1000
AcDbSavedByObjectVersion
1070
     0
  0
VISUALSTYLE
  5
A0
102
{ACAD_XDICTIONARY
360
2463
102
}
102
{ACAD_REACTORS
330
95
102
}
330
95
100
AcDbVisualStyle
  2

 70
    11
 71
     2
 72
     2
 73
     1
 90
        0
 40
-0.6
 41
-30.0
 62
     5
 63
     7
421
 16777215
 74
     1
 91
        4
 64
     7
 65
   257
 75
     1
175
     1
 42
1.0
 92
        8
 66
     7
 43
1.0
 76
     1
 77
     6
 78
     2
 67
     7
 79
     5
170
     0
171
     0
290
     0
174
     0
 93
        1
 44
-50.0
173
     0
291
     1
 45
0.0
1001
ACAD
1000
AcDbSavedByObjectVersion
1070
     0
  0
VISUALSTYLE
  5
172
102
{ACAD_XDICTIONARY
360
2474
102
}
102
{ACAD_REACTORS
330
95
102
}
330
95
100
AcDbVisualStyle
  2

 70
    22
 71
     2
 72
     2
 73
     0
 90
        0
 40
-0.6
 41
-30.0
 62
     5
 63
     7
421
 16777215
 74
     1
 91
        4
 64
     7
 65
   257
 75
     1
175
     1
 42
1.0
 92
        8
 66
     7
 43
1.0
 76
     1
 77
     6
 78
     2
 67
     7
 79
     5
170
     0
171
     0
290
     0
174
     0
 93
        1
 44
0.0
173
     0
291
     1
 45
0.0
1001
ACAD
1000
AcDbSavedByObjectVersion
1070
     0
  0
VISUALSTYLE
  5
A4
102
{ACAD_XDICTIONARY
360
246B
102
}
102
{ACAD_REACTORS
330
95
102
}
330
95
100
AcDbVisualStyle
  2

 70
    15
 71
     2
 72
     2
 73
     1
 90
        0
 40
-0.6
 41
-30.0
 62
     5
 63
     7
421
 16777215
 74
     1
 91
        4
 64
     7
 65
   257
 75
     1
175
     1
 42
1.0
 92
        8
 66
     7
 43
1.0
 76
     1
 77
     6
 78
     2
 67
     7
 79
     5
170
     0
171
     0
290
     0
174
     0
 93
        1
 44
0.0
173
     0
291
     1
 45
0.0
1001
ACAD
1000
AcDbSavedByObjectVersion
1070
     0
  0
VISUALSTYLE
  5
96
102
{ACAD_XDICTIONARY
360
244F
102
}
102
{ACAD_REACTORS
330
95
102
}
330
95
100
AcDbVisualStyle
  2

 70
     0
 71
     2
 72
     1
 73
     1
 90
        2
 40
-0.6
 41
30.0
 62
     5
 63
     7
421
 16777215
 74
     0
 91
        0
 64
     7
 65
   257
 75
     1
175
     1
 42
1.0
 92
        8
 66
     7
 43
1.0
 76
     1
 77
     6
 78
     2
 67
     7
 79
     5
170
     0
171
     0
290
     0
174
     0
 93
       13
 44
0.0
173
     0
291
     1
 45
0.0
1001
ACAD
1000
AcDbSavedByObjectVersion
1070
     0
  0
VISUALSTYLE
  5
97
102
{ACAD_XDICTIONARY
360
2451
102
}
102
{ACAD_REACTORS
330
95
102
}
330
95
100
AcDbVisualStyle
  2

 70
     1
 71
     2
 72
     1
 73
     1
 90
        2
 40
-0.6
 41
30.0
 62
     5
 63
     7
421
 16777215
 74
     1
 91
        0
 64
     7
 65
   257
 75
     1
175
     1
 42
1.0
 92
        0
 66
   257
 43
1.0
 76
     1
 77
     6
 78
     2
 67
     7
 79
     5
170
     0
171
     0
290
     0
174
     0
 93
       13
 44
0.0
173
     0
291
     1
 45
0.0
1001
ACAD
1000
AcDbSavedByObjectVersion
1070
     0
  0
VISUALSTYLE
  5
98
102
{ACAD_XDICTIONARY
360
2453
102
}
102
{ACAD_REACTORS
330
95
102
}
330
95
100
AcDbVisualStyle
  2

 70
     2
 71
     2
 72
     2
 73
     1
 90
        2
 40
-0.6
 41
30.0
 62
     5
 63
     7
421
 16777215
 74
     0
 91
        0
 64
     7
 65
   257
 75
     1
175
     1
 42
1.0
 92
        0
 66
     7
 43
1.0
 76
     1
 77
     6
 78
     2
 67
     7
 79
     5
170
     0
171
     0
290
     0
174
     0
 93
       13
 44
0.0
173
     0
291
     1
 45
0.0
1001
ACAD
1000
AcDbSavedByObjectVersion
1070
     0
  0
VISUALSTYLE
  5
99
102
{ACAD_XDICTIONARY
360
2455
102
}
102
{ACAD_REACTORS
330
95
102
}
330
95
100
AcDbVisualStyle
  2

 70
     3
 71
     2
 72
     2
 73
     1
 90
        2
 40
-0.6
 41
30.0
 62
     5
 63
     7
421
 16777215
 74
     1
 91
        0
 64
     7
 65
   257
 75
     1
175
     1
 42
1.0
 92
        0
 66
   257
 43
1.0
 76
     1
 77
     6
 78
     2
 67
     7
 79
     5
170
     0
171
     0
290
     0
174
     0
 93
       13
 44
0.0
173
     0
291
     1
 45
0.0
1001
ACAD
1000
AcDbSavedByObjectVersion
1070
     0
  0
VISUALSTYLE
  5
9D
102
{ACAD_XDICTIONARY
360
245D
102
}
102
{ACAD_REACTORS
330
95
102
}
330
95
100
AcDbVisualStyle
  2

 70
     6
 71
     1
 72
     2
 73
     2
 90
        0
 40
-0.6
 41
-30.0
 62
     5
 63
     7
421
 16777215
 74
     2
 91
        2
 64
     7
 65
   257
 75
     2
175
     1
 42
40.0
 92
        0
 66
   257
 43
1.0
 76
     1
 77
     6
 78
     2
 67
     7
 79
     3
170
     0
171
     0
290
     0
174
     0
 93
        1
 44
0.0
173
     0
291
     0
 45
0.0
1001
ACAD
1000
AcDbSavedByObjectVersion
1070
     0
  0
VISUALSTYLE
  5
170
102
{ACAD_XDICTIONARY
360
2470
102
}
102
{ACAD_REACTORS
330
95
102
}
330
95
100
AcDbVisualStyle
  2

 70
    20
 71
     2
 72
     2
 73
     0
 90
        0
 40
-0.6
 41
-30.0
 62
     5
 63
     7
421
 16777215
 74
     1
 91
        4
 64
     7
 65
   257
 75
     1
175
     1
 42
1.0
 92
       10
 66
     7
 43
1.0
 76
     1
 77
     6
 78
     2
 67
     7
 79
     5
170
     0
171
     0
290
     0
174
     0
 93
        1
 44
0.0
173
     0
291
     1
 45
0.0
1001
ACAD
1000
AcDbSavedByObjectVersion
1070
     0
  0
VISUALSTYLE
  5
A3
102
{ACAD_XDICTIONARY
360
2469
102
}
102
{ACAD_REACTORS
330
95
102
}
330
95
100
AcDbVisualStyle
  2

 70
    14
 71
     2
 72
     2
 73
     1
 90
        0
 40
-0.6
 41
-30.0
 62
     5
 63
     7
421
 16777215
 74
     1
 91
        4
 64
     7
 65
   257
 75
     7
175
     7
 42
1.0
 92
        8
 66
     7
 43
1.0
 76
     1
 77
     6
 78
     2
 67
     7
 79
     5
170
     0
171
     0
290
     0
174
     0
 93
        1
 44
0.0
173
     0
291
     1
 45
0.0
1001
ACAD
1000
AcDbSavedByObjectVersion
1070
     0
  0
VISUALSTYLE
  5
171
102
{ACAD_XDICTIONARY
360
2472
102
}
102
{ACAD_REACTORS
330
95
102
}
330
95
100
AcDbVisualStyle
  2

 70
    21
 71
     2
 72
     2
 73
     0
 90
        0
 40
-0.6
 41
-30.0
 62
     5
 63
     7
421
 16777215
 74
     1
 91
        4
 64
     7
 65
   257
 75
     1
175
     1
 42
1.0
 92
        9
 66
     7
 43
1.0
 76
     1
 77
     6
 78
     2
 67
     7
 79
     5
170
     0
171
     0
290
     0
174
     0
 93
        1
 44
0.0
173
     0
291
     1
 45
0.0
1001
ACAD
1000
AcDbSavedByObjectVersion
1070
     0
  0
VISUALSTYLE
  5
9F
102
{ACAD_XDICTIONARY
360
2461
102
}
102
{ACAD_REACTORS
330
95
102
}
330
95
100
AcDbVisualStyle
  2

 70
     8
 71
     2
 72
     3
 73
     0
 90
        2
 40
-0.6
 41
30.0
 62
     5
 63
     7
421
 16777215
 74
     0
 91
        0
 64
     7
 65
   257
 75
     1
175
     1
 42
1.0
 92
        8
 66
   257
 43
1.0
 76
     1
 77
     6
 78
     2
 67
     7
 79
     3
170
     0
171
     0
290
     0
174
     0
 93
       13
 44
0.0
173
     0
291
     0
 45
0.0
1001
ACAD
1000
AcDbSavedByObjectVersion
1070
     0
  0
VISUALSTYLE
  5
17F
102
{ACAD_XDICTIONARY
360
247E
102
}
102
{ACAD_REACTORS
330
95
102
}
330
95
100
AcDbVisualStyle
  2

 70
    27
 71
     2
 72
     2
 73
     1
 90
        2
 40
-0.6
 41
30.0
 62
     5
 63
     7
421
 16777215
 74
     0
 91
        4
 64
     7
 65
   257
 75
     1
175
     1
 42
1.0
 92
        8
 66
   257
 43
1.0
 76
     1
 77
     6
 78
     2
 67
     8
425
  7895160
 79
     3
170
     0
171
     0
290
     0
174
     0
 93
        5
 44
0.0
173
     0
291
     0
 45
0.0
1001
ACAD
1000
AcDbSavedByObjectVersion
1070
     0
  0
VISUALSTYLE
  5
17E
102
{ACAD_XDICTIONARY
360
247C
102
}
102
{ACAD_REACTORS
330
95
102
}
330
95
100
AcDbVisualStyle
  2

 70
    26
 71
     2
 72
     2
 73
     1
 90
        2
 40
-0.6
 41
30.0
 62
     5
 63
     7
421
 16777215
 74
     1
 91
       10
 64
     7
 65
   257
 75
     2
175
     1
 42
1.0
 92
        8
 66
   257
 43
1.0
 76
     1
 77
     6
 78
     2
 67
     7
 79
     3
170
     0
171
     0
290
     0
174
     0
 93
        5
 44
0.0
173
     0
291
     0
 45
0.0
1001
ACAD
1000
AcDbSavedByObjectVersion
1070
     0
  0
VISUALSTYLE
  5
17B
102
{ACAD_XDICTIONARY
360
2476
102
}
102
{ACAD_REACTORS
330
95
102
}
330
95
100
AcDbVisualStyle
  2

 70
    23
 71
     2
 72
     2
 73
     3
 90
        0
 40
-0.6
 41
-30.0
 62
     5
 63
     7
421
 16777215
 74
     2
 91
        2
 64
     7
 65
     7
 75
     1
175
     1
 42
40.0
 92
        8
 66
     7
 43
1.0
 76
     1
 77
     6
 78
     2
 67
     7
 79
     3
170
     0
171
     0
290
     0
174
     0
 93
        1
 44
0.0
173
     0
291
     0
 45
0.0
1001
ACAD
1000
AcDbSavedByObjectVersion
1070
     0
  0
VISUALSTYLE
  5
17C
102
{ACAD_XDICTIONARY
360
2478
102
}
102
{ACAD_REACTORS
330
95
102
}
330
95
100
AcDbVisualStyle
  2

 70
    24
 71
     1
 72
     2
 73
     2
 90
        0
 40
-0.6
 41
-30.0
 62
     5
 63
     7
421
 16777215
 74
     2
 91
        2
 64
     7
 65
     7
 75
     1
175
     1
 42
40.0
 92
       11
 66
     7
 43
1.0
 76
     1
 77
     6
 78
     2
 67
     7
 79
     6
170
     0
171
     0
290
     0
174
     0
 93
        1
 44
0.0
173
     0
291
     0
 45
0.0
1001
ACAD
1000
AcDbSavedByObjectVersion
1070
     0
  0
VISUALSTYLE
  5
A2
102
{ACAD_XDICTIONARY
360
2467
102
}
102
{ACAD_REACTORS
330
95
102
}
330
95
100
AcDbVisualStyle
  2

 70
    13
 71
     2
 72
     2
 73
     1
 90
        0
 40
-0.6
 41
-30.0
 62
     5
 63
     7
421
 16777215
 74
     1
 91
        4
 64
     7
 65
   257
 75
     1
175
     1
 42
1.0
 92
       12
 66
     7
 43
1.0
 76
     1
 77
     6
 78
     2
 67
     7
 79
     5
170
     0
171
     0
290
     0
174
     0
 93
        1
 44
0.0
173
     0
291
     1
 45
0.0
1001
ACAD
1000
AcDbSavedByObjectVersion
1070
     0
  0
VISUALSTYLE
  5
9C
102
{ACAD_XDICTIONARY
360
245B
102
}
102
{ACAD_REACTORS
330
95
102
}
330
95
100
AcDbVisualStyle
  2

 70
     5
 71
     0
 72
     2
 73
     0
 90
        0
 40
-0.6
 41
-30.0
 62
     5
 63
     7
421
 16777215
 74
     1
 91
        4
 64
     7
 65
   257
 75
     1
175
     1
 42
1.0
 92
        0
 66
   257
 43
1.0
 76
     1
 77
     6
 78
     2
 67
     7
 79
     3
170
     0
171
     0
290
     0
174
     0
 93
        1
 44
0.0
173
     0
291
     0
 45
0.0
1001
ACAD
1000
AcDbSavedByObjectVersion
1070
     0
  0
VISUALSTYLE
  5
17D
102
{ACAD_XDICTIONARY
360
247A
102
}
102
{ACAD_REACTORS
330
95
102
}
330
95
100
AcDbVisualStyle
  2

 70
    25
 71
     2
 72
     2
 73
     1
 90
        1
 40
0.5
 41
-30.0
 62
     5
 63
     7
421
 16777215
 74
     1
 91
        0
 64
     7
 65
   257
 75
     1
175
     1
 42
1.0
 92
        8
 66
     7
 43
1.0
 76
     1
 77
     6
 78
     2
 67
     7
 79
     3
170
     0
171
     0
290
     0
174
     0
 93
       13
 44
0.0
173
     0
291
     0
 45
0.0
1001
ACAD
1000
AcDbSavedByObjectVersion
1070
     0
  0
DICTIONARYVAR
  5
2387
102
{ACAD_REACTORS
330
59
102
}
330
59
100
DictionaryVariables
280
     0
  1
60.000000
  0
DICTIONARYVAR
  5
EB
102
{ACAD_REACTORS
330
59
102
}
330
59
100
DictionaryVariables
280
     0
  1
1:1
  0
DICTIONARYVAR
  5
EA
102
{ACAD_REACTORS
330
59
102
}
330
59
100
DictionaryVariables
280
     0
  1
STANDARD
  0
DICTIONARYVAR
  5
AB
102
{ACAD_REACTORS
330
59
102
}
330
59
100
DictionaryVariables
280
     0
  1
STANDARD
  0
DICTIONARYVAR
  5
1B4
102
{ACAD_REACTORS
330
59
102
}
330
59
100
DictionaryVariables
280
     0
  1
Imperial24
  0
DICTIONARYVAR
  5
1B5
102
{ACAD_REACTORS
330
59
102
}
330
59
100
DictionaryVariables
280
     0
  1
Imperial24
  0
DICTIONARYVAR
  5
5A
102
{ACAD_REACTORS
330
59
102
}
330
59
100
DictionaryVariables
280
     0
  1
2
  0
DICTIONARYVAR
  5
5E
102
{ACAD_REACTORS
330
59
102
}
330
59
100
DictionaryVariables
280
     0
  1
1
  0
DICTIONARYVAR
  5
14A
102
{ACAD_REACTORS
330
59
102
}
330
59
100
DictionaryVariables
280
     0
  1
0
  0
DICTIONARYVAR
  5
14B
102
{ACAD_REACTORS
330
59
102
}
330
59
100
DictionaryVariables
280
     0
  1
0
  0
DICTIONARYVAR
  5
2386
102
{ACAD_REACTORS
330
59
102
}
330
59
100
DictionaryVariables
280
     0
  1
2
  0
DICTIONARYVAR
  5
2385
102
{ACAD_REACTORS
330
59
102
}
330
59
100
DictionaryVariables
280
     0
  1
1
  0
DICTIONARYVAR
  5
24AF
102
{ACAD_REACTORS
330
59
102
}
330
59
100
DictionaryVariables
280
     0
  1
2
  0
DICTIONARY
  5
244B
102
{ACAD_REACTORS
330
2449
102
}
330
2449
100
AcDbDictionary
281
     1
  0
DICTIONARY
  5
244A
102
{ACAD_REACTORS
330
2449
102
}
330
2449
100
AcDbDictionary
281
     1
  3
8796082931008
350
2444
  3
8796082931024
350
2445
  3
8796082931040
350
2446
  3
8796082931056
350
2447
  3
8796082931072
350
2448
  0
DICTIONARY
  5
1C3
330
1A9
100
AcDbDictionary
280
     1
281
     1
  3
ACAD_XREC_ROUNDTRIP
360
2481
  0
DICTIONARY
  5
2484
330
189C
100
AcDbDictionary
280
     1
281
     1
  3
ACAD_XREC_ROUNDTRIP
360
2485
  0
DICTIONARY
  5
191
330
22
100
AcDbDictionary
280
     1
281
     1
  0
DICTIONARY
  5
185
330
93
100
AcDbDictionary
280
     1
281
     1
  3
ACAD_XREC_ROUNDTRIP
360
244D
  3
FBXASSET
360
186
  0
DICTIONARY
  5
183
330
92
100
AcDbDictionary
280
     1
281
     1
  3
ACAD_XREC_ROUNDTRIP
360
244C
  3
FBXASSET
360
184
  0
DICTIONARY
  5
10B
330
94
100
AcDbDictionary
280
     1
281
     1
  3
ACAD_XREC_ROUNDTRIP
360
244E
  3
BUMPTILE
360
10D
  3
DIFFUSETILE
360
10C
  3
FBXASSET
360
187
  3
OPACITYTILE
360
10E
  3
REFLECTIONTILE
360
10F
  0
DICTIONARY
  5
1C1
330
1A7
100
AcDbDictionary
280
     1
281
     1
  3
ACAD_XREC_ROUNDTRIP
360
2480
  0
DICTIONARY
  5
2482
330
189B
100
AcDbDictionary
280
     1
281
     1
  3
ACAD_XREC_ROUNDTRIP
360
2483
  0
DICTIONARY
  5
FF
330
A7
100
AcDbDictionary
280
     1
281
     1
  3
ACAD_ROUNDTRIP_2008_TABLESTYLE_CELLSTYLEMAP
360
24B0
  3
ACAD_XREC_ROUNDTRIP
360
24B2
  0
DICTIONARY
  5
2459
330
9B
100
AcDbDictionary
280
     1
281
     1
  3
ACAD_XREC_ROUNDTRIP
360
245A
  0
DICTIONARY
  5
2457
330
9A
100
AcDbDictionary
280
     1
281
     1
  3
ACAD_XREC_ROUNDTRIP
360
2458
  0
DICTIONARY
  5
2465
330
A1
100
AcDbDictionary
280
     1
281
     1
  3
ACAD_XREC_ROUNDTRIP
360
2466
  0
DICTIONARY
  5
246D
330
A5
100
AcDbDictionary
280
     1
281
     1
  3
ACAD_XREC_ROUNDTRIP
360
246E
  0
DICTIONARY
  5
245F
330
9E
100
AcDbDictionary
280
     1
281
     1
  3
ACAD_XREC_ROUNDTRIP
360
2460
  0
DICTIONARY
  5
2463
330
A0
100
AcDbDictionary
280
     1
281
     1
  3
ACAD_XREC_ROUNDTRIP
360
2464
  0
DICTIONARY
  5
2474
330
172
100
AcDbDictionary
280
     1
281
     1
  3
ACAD_XREC_ROUNDTRIP
360
2475
  0
DICTIONARY
  5
246B
330
A4
100
AcDbDictionary
280
     1
281
     1
  3
ACAD_XREC_ROUNDTRIP
360
246C
  0
DICTIONARY
  5
244F
330
96
100
AcDbDictionary
280
     1
281
     1
  3
ACAD_XREC_ROUNDTRIP
360
2450
  0
DICTIONARY
  5
2451
330
97
100
AcDbDictionary
280
     1
281
     1
  3
ACAD_XREC_ROUNDTRIP
360
2452
  0
DICTIONARY
  5
2453
330
98
100
AcDbDictionary
280
     1
281
     1
  3
ACAD_XREC_ROUNDTRIP
360
2454
  0
DICTIONARY
  5
2455
330
99
100
AcDbDictionary
280
     1
281
     1
  3
ACAD_XREC_ROUNDTRIP
360
2456
  0
DICTIONARY
  5
245D
330
9D
100
AcDbDictionary
280
     1
281
     1
  3
ACAD_XREC_ROUNDTRIP
360
245E
  0
DICTIONARY
  5
2470
330
170
100
AcDbDictionary
280
     1
281
     1
  3
ACAD_XREC_ROUNDTRIP
360
2471
  0
DICTIONARY
  5
2469
330
A3
100
AcDbDictionary
280
     1
281
     1
  3
ACAD_XREC_ROUNDTRIP
360
246A
  0
DICTIONARY
  5
2472
330
171
100
AcDbDictionary
280
     1
281
     1
  3
ACAD_XREC_ROUNDTRIP
360
2473
  0
DICTIONARY
  5
2461
330
9F
100
AcDbDictionary
280
     1
281
     1
  3
ACAD_XREC_ROUNDTRIP
360
2462
  0
DICTIONARY
  5
247E
330
17F
100
AcDbDictionary
280
     1
281
     1
  3
ACAD_XREC_ROUNDTRIP
360
247F
  0
DICTIONARY
  5
247C
330
17E
100
AcDbDictionary
280
     1
281
     1
  3
ACAD_XREC_ROUNDTRIP
360
247D
  0
DICTIONARY
  5
2476
330
17B
100
AcDbDictionary
280
     1
281
     1
  3
ACAD_XREC_ROUNDTRIP
360
2477
  0
DICTIONARY
  5
2478
330
17C
100
AcDbDictionary
280
     1
281
     1
  3
ACAD_XREC_ROUNDTRIP
360
2479
  0
DICTIONARY
  5
2467
330
A2
100
AcDbDictionary
280
     1
281
     1
  3
ACAD_XREC_ROUNDTRIP
360
2468
  0
DICTIONARY
  5
245B
330
9C
100
AcDbDictionary
280
     1
281
     1
  3
ACAD_XREC_ROUNDTRIP
360
245C
  0
DICTIONARY
  5
247A
330
17D
100
AcDbDictionary
280
     1
281
     1
  3
ACAD_XREC_ROUNDTRIP
360
247B
  0
XRECORD
  5
2444
102
{ACAD_REACTORS
330
244A
102
}
330
244A
100
AcDbXrecord
280
     1
  1
AcDb_Thumbnail_Schema
102
{ATTRRECORD
341
2445
  2
AcDbDs::TreatedAsObjectData
280
     1
291
     1
102
ATTRRECORD}
102
{ATTRRECORD
341
2446
  2
AcDbDs::Legacy
280
     1
291
     1
102
ATTRRECORD}
  2
AcDbDs::ID
280
    10
 91
        8
102
{ATTRRECORD
341
2447
  2
AcDs:Indexable
280
     1
291
     1
102
ATTRRECORD}
102
{ATTRRECORD
341
2448
  2
AcDbDs::HandleAttribute
280
     7
282
     1
102
ATTRRECORD}
  2
Thumbnail_Data
280
    15
 91
        0
  0
XRECORD
  5
2445
102
{ACAD_REACTORS
330
244A
102
}
330
244A
100
AcDbXrecord
280
     1
  1
AcDbDs::TreatedAsObjectDataSchema
  2
AcDbDs::TreatedAsObjectData
280
     1
 91
        0
  0
XRECORD
  5
2446
102
{ACAD_REACTORS
330
244A
102
}
330
244A
100
AcDbXrecord
280
     1
  1
AcDbDs::LegacySchema
  2
AcDbDs::Legacy
280
     1
 91
        0
  0
XRECORD
  5
2447
102
{ACAD_REACTORS
330
244A
102
}
330
244A
100
AcDbXrecord
280
     1
  1
AcDbDs::IndexedPropertySchema
  2
AcDs:Indexable
280
     1
 91
        0
  0
XRECORD
  5
2448
102
{ACAD_REACTORS
330
244A
102
}
330
244A
100
AcDbXrecord
280
     1
  1
AcDbDs::HandleAttributeSchema
  2
AcDbDs::HandleAttribute
280
     7
 91
        1
284
     1
  0
XRECORD
  5
2481
102
{ACAD_REACTORS
330
1C3
102
}
330
1C3
100
AcDbXrecord
280
     1
102
DISPLAYNAME
  1
Imperial24
102
FLAGS
 90
        0
  0
XRECORD
  5
2485
102
{ACAD_REACTORS
330
2484
102
}
330
2484
100
AcDbXrecord
280
     1
102
DISPLAYNAME
  1
Metric50
102
FLAGS
 90
        0
  0
XRECORD
  5
244D
102
{ACAD_REACTORS
330
185
102
}
330
185
100
AcDbXrecord
280
     1
102
MATERIAL
148
0.0
149
0.0
149
0.0
 93
        0
 94
      127
282
     0
 72
     1
 77
     1
171
     1
175
     1
179
     1
273
     0
  0
XRECORD
  5
186
102
{ACAD_REACTORS
330
185
102
}
330
185
100
AcDbXrecord
280
     1
 70
     1
 90
429727718
  1
7581DE8E-A623-425F-9BF4-B3F4BE6C4F9A
310
504B03040A0000080000AC70623B3DEE336E79000000790000001B0000006175746F6465736B2D64657369676E2D7061636B6167652E786D6C3C3F786D6C2076657273696F6E3D22312E302220656E636F64696E673D227574662D3822203F3E3C666F726D6174733E3C666F726D61743E687474703A2F2F736368656D612E
310
6175746F6465736B2E636F6D2F64657369676E2D7061636B6167652F323030393C2F666F726D61743E3C2F666F726D6174733E504B0304140006080800AC70623BD486FD9CA0000000F4000000130000005B436F6E74656E745F54797065735D2E786D6C7D8EC10E82300C865F65E91D8A1E8C310C0EEA1BF002731658846E
310
D98AC1B77784ABF1D8FE5FBFBF75BBCE937A534CCEB38643598122B6FEE978D0B0485F9C41B54DDD7D022595594E1A469170414C76A4D9A4D207E29CF43ECE46F218070CC6BECC4078ACAA135ACF422C856C0E68EA1BF5669944DDD7BCDE7B1F8E415D77AECB980613C2E4AC91FC167A2B244592486606FC29C8FD7F045B9A
310
EF7053A7E60B504B0304140006080800AC70623B9A2F3B5FEC0000007C01000008000000636F72652E786D6C8D90416E83301045AF62CDB632D8040820E328B4E204BD80653BC44AB011B6AB1EBF262152BBEB6A467FFE9B197D76FA9EEFE84BAFDE38DB03CD08206DA553C64E3DC470C10DA01367AB73E1970D9015B3EE61
310
9381B3697571D925E96CD03624D53AA5775178AF0320794F4D0F5E5EF52C32114372F85BB608791393CEE8AB4B708C46A1E711A3D23E73317A055E0D4D53D6C71A9FC7A1C6657D18703354232ECFED4731B6B43CBED72CDF60CE82995FF7E5AA45D00A7841488B29C5A4F8A46547AAAEA8DE48D311C2F2CDFE078A8BFA2714
310
8D0D87627FF78979E0343DF21870966F59A4F2082AD52D37FE03504B0304140006080800AC70623B55019EA25F0000007C00000007000000636E782E786D6C4DCB3B0E80201045D1AD90E915ED2CF8AC45050C11660C8261F98AB1B07AC9C97D42D718D865D3E909258CFD00CCE24AC6E326A164D74DC0B4128928FF326038
310
472BA13128B1252AC747C6BAB984FC68F0B87FE8960A5C09FE86CFB69FBA01504B0304140006080800AC70623B6E137E0172010000D40300000C0000006662782F636F72652E786D6CC5535B6E833010BC8AE5DF0A6C0810121947A1554ED00B38E05014B091B1518EDFE511A5A9D22AFD2A1F60CDEC7A67C698ED2E6D8306
310
69FA5AAB0C073EC548AA4297B5AA32ECECC94B31DA7166B4B65FCA3052A295191E61CC5965B4EB16A8D0CA4A650155BA940B28FA5E5A8C8A061619EE8B0FD90A5F380B15FDD9EF44711695F4031F68A8E3ACB70604A079C8F8C6FC74BC3032E39C3957970B5B9730AD3ED5D2601EE7691A25EBC4DB1FF2C48B9255EEA5797C
310
F0A2FDE62D3C6C8268FD9A3032367366EBF6AAAE30525859621E52BAF182C0A3E17B106D69BC0DE3179A6E2965642CBF6B725DF96493AB955D858BDCB9ADC73C002113F1CD2D4464512F06D04338236388F09912BE0F1A028190AD3836571F67800659586D22604AED6ED4201A27612AF5E9F4A09F178CCC9D3075DA1C5C3F
310
9C113E3DE3F71DE1A885AAC084B0B03C3A3BEA64B38625B44E1A6FB017A4B46945F39C8D5F1CFE89BA897F28A9D08D36FFA5882C074496DF838CF7917F02504B0304140006080800AC70623BE001BAC07D0000009D0000000B0000006662782F636E782E786D6C4DCCD10AC2201886E15B91FFDCA6536B037548D87D8CE686
310
E4344CA3CB6F8B1D74F4C1C3C72B87CF1AD0DBE5974F51013D11402EDED3E4E3A2A096197780062D734AE5EF06288EAB53B03368B9E4549F074D6E1E6B289B061F1F07124689687987B9601C7373BD60C36E065B6A6DDF7341A93843A365F32B6DBB87F517504B0304140006080800AC70623B8E5068122901000012020000
310
310000006662782F30333130353234382D343533342D344143372D413346412D4531454539393435313135362F636F72652E786D6C8D515B6EC32010BC0AE22B55850D364E93081345557A825E801892A2C460F1A872FC2EB523B57FF961D1EECCECECAED8DFC71BFA36215AEF7ACC2A8A917183D7D65D7A9CD3996C30DA4B
310
11BC4F7F601839359A1E973496E2127C9E96D4E05D322E41D6796D96A48AD1248C861B7C7A1C872F33AA4AE5048878AD26355CD5C554AC8232E0A4882980013437292F96B465B46BF886F0AEE5841FDEDFC8A1FD3890233B1EB75BDE31D6AD453D13A5C8D9EA856E35D8B1676BC2B322852C45B2E3C3FE108C4A4663D950BA
310
258C11DA7C32BEA3DDAEE95EE96647A9A80BFC1F294FFA4952B62EB5CD6277A6452C99A8E78214DAE7D3ED61C6DC271F122AFD56D10C2F305545CB6A60FC1908E383E29A2F8A31F900EB5D5D4F8065DD2CBBE652D4E542107ECF07B15C53FE00504B0304140006080800AC70623B503B51794E010000330300003000000066
310
62782F30333130353234382D343533342D344143372D413346412D4531454539393435313135362F636E782E786D6CD593C16EC32010447F0571AD6CE3D489D20813A9877E410FBD62D82434182CC055F3F75D1292E692438FBD206B7698593D61BEFD1E2DF982108D773D6D6B460938E5B571FB9ECE6957AD29D90A1EBC4F
310
77364A9C1CA1A759A682EF839FA72269D8C9D92654AD71C72206887E0E0A22CAF926B15E498B01E0AA19451807D01A34B919F16B070157417138917400F2F6FA41FCF0092A45DEE414C19BDC21783E4BD39D891265658C3D8DEA00A3ACE59CBC8678ACB54CB26EEB6BD7839D7E9348BE70AD9C8321B9BCA7F9A4A26C542347
310
DEE050F09802D22BA6749A800A394DD62899107273365E3C82CFC6A55557BC06C10774B7ABE7AEC3B0F34CF06446280E154026D0542C187BA9DAB6628BF7B6DBB0E566B17C62EB0D63BCC976C107EF6DB9843110FC449477095CA2A2E54D1E3FC2577C449B80AC7D38FD01240228AD173AB78CFFCCA739BF6FC415F02F103F
310
504B0304140006080800AC70623B38FA165F680500003C100000340000006662782F30333130353234382D343533342D344143372D413346412D4531454539393435313135362F6F626A656374732E786D6CAD575D6FA33814FD2B887D0E8424EDB42BCAA8499A2A1A756634D18CF6A15264C0A16CC146B6E9A4FBEBF7180C
310
019276B21F7908D8D8F7F3DCE36BFFE33ECFAC172A64CAD98DED3963DBA22CE271CA921BBB54BBD1956D7D0C7CC1B9EA2CB32D46727A63EB693BF013C1CBC24CC57447CA4C0D6657F33F2C1951466D2BCA889437B68C9E684E1C522A1E53F9ECC4441127D9ED1DCFA917F6C52682144F03A105119429588A790629566D94D7
310
1F8E6D37F05DFD3DF0F5BF59357D7B955BF9D3D79F32A9088B8E940DC44CBDD9F26E72713DBA98CDA6A3D9E5C41BCD57F3E5C8FB301D2F2E178BEBDBBB6B28964A4092B144D09D1DDC2336228D7CB7FED45A6C0C3F6552C419A351E53F3CAC6C3612635A5016238F2995D0D6F17ADC1F7A3A369DCF533D362ABBD3E779D5DD
310
D111D4D8DE3CBB96F2F04FB820CF41859054A3AA8E8F71B4C6DFF810B590F3CC7C4BA5951345454A322B4B4341C4AB1D60A95E12F83D311A9D42235C7B6007DE415ED75694C6AFB17BCACA5D99651A9A7650217B0BFC53252BCBD2BFA838AD0D36215765CAD4957148BD16D40EAE7DB79A0C7CFD984ECCC73A90D62E230952
310
0E37EBAF034717BAF6D64B3BF8B40AF71B5D8FA79517821754280D1F40AB495CF3D451326ABDB332A737C0995ECC0F41F986C87F46F91E4C41DE44BA9FED67468B1284C91D173972E38CAB9F356E5E46EDDBF10BF86CB0FA784D3BF3AF16FB6E6B6C9F30DECA1FC0A55373F5DFF3D78F5917A99DF405FE0B0A8C8BA909E526
310
2219A8E72165488806A595714C81CB77E1DE0ED6604A303B76912C680372F4E2BB2FF88EFF5A36D8AA52DF79322474C0B767303F625995056C7B032C473C592936CEBD15F38BFFA5666E979B4F9B52EC48441F0CB12CE92E65A9C2D979006FD7A05E227A1E3DD3D79F5CC470F438099B6E1272A34A22DA3AE63AF0497358E8
310
C141734F41847D09D79CE7FF42C3432A239A6584515E365ADA634863B52519D327A00AEB804E2703140BFA92EA4EA2B7A26716CEFA48A4850E597BE8B53CEDBCE1CBF7F56780D20EE6AF73A0F5F9B02A3CD07DC4332EB6E1EBB666421BE0C39E3EBA7FF4E16D22EA6A29407C85E586724C88B771BADB9512BC7B228A3FD68B
310
6EA65A22397E690AA8D158D7E40CEC8CDA23C2C0B7D1898640101CEC9C6D531CE328CB93CABBBA870A6425F70DF96199175B92F392A973C2346EFC69AC6F8577BB18F993A8E8C90E36D573340765C7343EA4AA87027D049DF0A9979E0F1757DEF2EEEA6E747B39412B35B9588DAEE7ABD9683E5DCDE677978BD9EAFAB6B5A8
310
B224F09B13AA5B8388264E44BF14A909F3F7F5A16CEDE08128E9DED705E526F5F3FBDA415BECBBD80380B71BD77991D19C3245347C1FF44BF68DA0ABE8C9A8E7D73949E81952BEDC6F063660E68C7D5F75A9D19F83BD6676A16BE1A410F554E621236936D8681C770A9618B79B50B6CF9AD19BA11E9978A20F953C4B63104E
310
6C2594E7548176CE607B915309C474BBF2D8DC1ECED8FD52F7838A84196D2C79226889330954036E65A4FAF3D66F68E174177563E3B0739EF1670AD1B690EA1B1BFCA6D2884A27C4F1A81B9F4A3820802EAC2541408DB02443675D6F6AC7ED2E1D1BD00F4E40A3BF5D724EB764FCEA116F4E8A02A7768F562BDB8C82E81F39
310
DE98631185D7B054AD2F8789D6994A0D2AAB76CADC0DD0423C1BD57BD4D7FB6E794EB5A61791B3EE49EF82A0963A524424D5BD40DB674CBA5D7E75D10A58EB2F569195097279BEA491A00073A90B1C28022A8CCC82284075F1FBE357C17117CDAD550A083C2E789E736606B7E62E6B6D9E70338D1F410B545F3FE464EC798F
310
55D76F2E22DB9048EA90583E63A22938EDC1006B00E4D1716A52E0EA1C0C96AF9796393066105A81F6A829ADAFE1168A47DF1C75A974C9B278B7F177ABA5008340CB1EFC0D504B0304140006080000AC70623B000000000000000000000000350000006662782F30333130353234382D343533342D344143372D413346412D
310
4531454539393435313135362F76657274696365732E62696E504B0304140006080800AC70623BF270F1330600000004000000360000006662782F30333130353234382D343533342D344143372D413346412D4531454539393435313135362F747269616E676C65732E62696E636660600000504B0304140006080000AC70
310
623B000000000000000000000000370000006662782F30333130353234382D343533342D344143372D413346412D4531454539393435313135362F617474726962757465732E62696E504B0304140006080800AC70623B08DA0BD19000000041010000360000006662782F30333130353234382D343533342D344143372D41
310
3346412D4531454539393435313135362F6469726563746F72792E786D6C858F410AC3201045AF22B36F53E9A60B35CBEEBAE80D244E44489C6234F4F835464A48035D0DF398FF9F8AF63D0E6CC63039F212F8F9020C7D47C6792B21C5FE7403D62A1188E2E60C98D7234A5830286103A55745067B9D86B8A3CF9C7F90C11D
310
E607FB144396D7B6A82D282E9A152AD114D5EF2CB866EEE831B8EEA07A7BB5A8D7D61A2BAAEB7FD5F70921FF497D00504B0304140006080800AC70623BF2C5666EFF000000A00100003B0000006662782F30333130353234382D343533342D344143372D413346412D4531454539393435313135362F7265736F7572636573
310
2F636F72652E786D6C8D504B6E833010BD0A9A6D65B00910888CA3D02A27E8052C33A156821DF953F5F8B5132AB5BB6E6646EFA3797AFCF8B5DE8A4F745E5B33022B291468949DB5594688E1427A288E823B6BC32F191446AE38428641F0C5D978DF20654D4013126AEC8C1B28BDC70085BAA56304AF3E7095A58C2129FCB5
310
BC4B75950B96AC4C74D209EE834B018AE7933C4138F4363A859E574F56F018F5BC69F49C7EEA8B4607A29DFABEE9F62D399DA78E34DD6E22FDD49E49731ADEEAF3C09AFD6BC7AB6C163CE8F527A3722803CE206A4A07C218A1F53B6B0EB43DD4ED0BED0F94F22ACBFF98E27DFEA7296A1376F516F769F320580AF22004AF72
310
5F693DCA4C3B772BBE01504B010214000A0000080000AC70623B3DEE336E79000000790000001B00000000000000000000000000000000006175746F6465736B2D64657369676E2D7061636B6167652E786D6C504B01021400140006080800AC70623BD486FD9CA0000000F40000001300000000000000000000000000B200
310
00005B436F6E74656E745F54797065735D2E786D6C504B01021400140006080800AC70623B9A2F3B5FEC0000007C010000080000000000000000000000000083010000636F72652E786D6C504B01021400140006080800AC70623B55019EA25F0000007C000000070000000000000000000000000095020000636E782E786D
310
6C504B01021400140006080800AC70623B6E137E0172010000D40300000C00000000000000000000000000190300006662782F636F72652E786D6C504B01021400140006080800AC70623BE001BAC07D0000009D0000000B00000000000000000000000000B50400006662782F636E782E786D6C504B010214001400060808
310
00AC70623B8E506812290100001202000031000000000000000000000000005B0500006662782F30333130353234382D343533342D344143372D413346412D4531454539393435313135362F636F72652E786D6C504B01021400140006080800AC70623B503B51794E010000330300003000000000000000000000000000D3
310
0600006662782F30333130353234382D343533342D344143372D413346412D4531454539393435313135362F636E782E786D6C504B01021400140006080800AC70623B38FA165F680500003C10000034000000000000000000000000006F0800006662782F30333130353234382D343533342D344143372D413346412D4531
310
454539393435313135362F6F626A656374732E786D6C504B01021400140006080000AC70623B0000000000000000000000003500000000000000000000000000290E00006662782F30333130353234382D343533342D344143372D413346412D4531454539393435313135362F76657274696365732E62696E504B01021400
310
140006080800AC70623BF270F133060000000400000036000000000000000000000000007C0E00006662782F30333130353234382D343533342D344143372D413346412D4531454539393435313135362F747269616E676C65732E62696E504B01021400140006080000AC70623B0000000000000000000000003700000000
310
000000000000000000D60E00006662782F30333130353234382D343533342D344143372D413346412D4531454539393435313135362F617474726962757465732E62696E504B01021400140006080800AC70623B08DA0BD1900000004101000036000000000000000000000000002B0F00006662782F30333130353234382D
310
343533342D344143372D413346412D4531454539393435313135362F6469726563746F72792E786D6C504B01021400140006080800AC70623BF2C5666EFF000000A00100003B000000000000000000000000000F1000006662782F30333130353234382D343533342D344143372D413346412D453145453939343531313536
310
2F7265736F75726365732F636F72652E786D6C504B0506000000000E000E0080040000671100000000
  0
XRECORD
  5
244C
102
{ACAD_REACTORS
330
183
102
}
330
183
100
AcDbXrecord
280
     1
102
MATERIAL
148
0.0
149
0.0
149
0.0
 93
        0
 94
      127
282
     0
 72
     1
 77
     1
171
     1
175
     1
179
     1
273
     0
  0
XRECORD
  5
184
102
{ACAD_REACTORS
330
183
102
}
330
183
100
AcDbXrecord
280
     1
 70
     1
 90
429727718
  1
778E3A9F-1AF3-452F-85C1-1BC15BD3F630
310
504B03040A0000080000AC70623B3DEE336E79000000790000001B0000006175746F6465736B2D64657369676E2D7061636B6167652E786D6C3C3F786D6C2076657273696F6E3D22312E302220656E636F64696E673D227574662D3822203F3E3C666F726D6174733E3C666F726D61743E687474703A2F2F736368656D612E
310
6175746F6465736B2E636F6D2F64657369676E2D7061636B6167652F323030393C2F666F726D61743E3C2F666F726D6174733E504B0304140006080800AC70623BD486FD9CA0000000F4000000130000005B436F6E74656E745F54797065735D2E786D6C7D8EC10E82300C865F65E91D8A1E8C310C0EEA1BF002731658846E
310
D98AC1B77784ABF1D8FE5FBFBF75BBCE937A534CCEB38643598122B6FEE978D0B0485F9C41B54DDD7D022595594E1A469170414C76A4D9A4D207E29CF43ECE46F218070CC6BECC4078ACAA135ACF422C856C0E68EA1BF5669944DDD7BCDE7B1F8E415D77AECB980613C2E4AC91FC167A2B244592486606FC29C8FD7F045B9A
310
EF7053A7E60B504B0304140006080800AC70623BFD5588D4EC0000007C01000008000000636F72652E786D6C8D90416EC3201045AF82665B6103891DC7C24471939CA01740405C94182C03558F5F9C3852BBEB6A467FFE9B197D7EF81EEFE8CBCCC17AD7012D0820E394D7D60D1DA478C50DA083E0B3F7F1970D9093A3E960
310
9141F061F6695A25E55D342E66D5796D56518660222075CF4D07417D9A511632C5EC08B76292EA260753D05797E194AC46CF2356E77DF66ACD0C62C768BD63971E5727D2E06DDF9C71BF7B3FE10BABF79BFA488FE4DCF07281058F767CDD57B391D168108C903DA61413F641B72DA95A56BD91A62584978BFD0F9426FD4F28
310
5917376C7DF7890510343FF218085E2E59E4F2082AD72537F103504B0304140006080800AC70623B55019EA25F0000007C00000007000000636E782E786D6C4DCB3B0E80201045D1AD90E915ED2CF8AC45050C11660C8261F98AB1B07AC9C97D42D718D865D3E909258CFD00CCE24AC6E326A164D74DC0B4128928FF326038
310
472BA13128B1252AC747C6BAB984FC68F0B87FE8960A5C09FE86CFB69FBA01504B0304140006080800AC70623BB5D38BAD72010000D40300000C0000006662782F636F72652E786D6CC553DB8E823014FC95A6AF1B68C11B9A52A3AB7EC1FE4085CA36424B4A4BFCFC3D5C8CEBC635EED3F200CDCC393D3353CAD697AA44AD
310
B48D323AC5514831923A33B9D2458ABD3B0509466BCEAC31EE5B19465A5432C51D8C392BACF1F50865463BA91DA0DAE4720445D348875156C222C54DF6292B110AEFA0A23987B5C8CEA2906114020D759C35CE8200340CE9DE989F8E1746069C33EF553EB22A8769EAA4A4C57C1147F3457CD806B31D4D82E936D907DBC5FB
310
2E38C4F3E564BE8936749F30D23573E65475559759299CCC318F295D065114D0F8239AAEE86C15CFDE68B2A29491AEFCAEC9D7F98B4D5E69378947B9435B837904427AE2875B88C8A146B4A0877046BA10E1D3277C1F340402213B712CAF3ECE00B53273C64E81C98DBF51AD28BD84A934A4FD837E5F303274C2D47E7370FD
310
7046FCF28CE73BC2510B5D8009E16079F4AED3C9060D6368B5B441EB2E481B5B89F2351B4F1CFE89BA897F282933A5B1FFA5888C0744C6DF8374F7917F01504B0304140006080800AC70623B09885E1C7E0000009D0000000B0000006662782F636E782E786D6C4DCCDF0A83201C86E15B91DFB9CBA6FD11D41063F711CB42
310
663A9C8E5DFE6A74B0A30F1E3E5E317C368FDE36BD5C0C12EA0B0164C33DCE2EAC124A5E700F685022C598FF6E80C2B459090783126B8AE579D26C97A9F8BCAB77E17122E586D5843498B3EE8699D114F39E5E713D76EDA84DCBB569A052A2FA95F63DC2EA0B504B0304140006080800AC70623B961D28872A010000120200
310
00310000006662782F33394334313030352D393437462D344341332D393833322D3144373644414336394143352F636F72652E786D6C8D515B6EC32010BC8AC557AA0A1BFC4A1C61A2C8514FD00B10435294182C1E558EDFA576A4F62F3F80666766875D76784CF7EC5B39AFADE911CD09CA9419ADD4E6DAA3182E7887B203
310
67CEDAF08786322326D5A30423CEAECEC67985466B8232015063A55A41E1BD0A281BEFF0E8911FBFD42472110330FC2D9FC578135795D31CCAC0E3CC070701B2A5493A11AFBAA1A68434B8ABB71FB81E8E15EE765589E969DB9E8E43DB1D8786158B90B318B55CE55A421C7DD1CABD6A92C49C053D3DE38F4E89A024E22521
310
1DA61493F293D67BD2ECCBE69DECF684B022D1FF89E22C5F14456D4255AE711799479CB2622970266D3CDF9F61D463B62E64A9DFC6ABF10D7192C35CCA0A040B11BE0F8E6DBD3AFA601D8C77733B0397C290926D5B7356A40DC1F5BB3EB8D336F90F504B0304140006080800AC70623B503B51794E01000033030000300000
310
006662782F33394334313030352D393437462D344341332D393833322D3144373644414336394143352F636E782E786D6CD593C16EC32010447F0571AD6CE3D489D20813A9877E410FBD62D82434182CC055F3F75D1292E692438FBD206B7698593D61BEFD1E2DF982108D773D6D6B460938E5B571FB9ECE6957AD29D90A1E
310
BC4F77364A9C1CA1A759A682EF839FA72269D8C9D92654AD71C72206887E0E0A22CAF926B15E498B01E0AA19451807D01A34B919F16B070157417138917400F2F6FA41FCF0092A45DEE414C19BDC21783E4BD39D891265658C3D8DEA00A3ACE59CBC8678ACB54CB26EEB6BD7839D7E9348BE70AD9C8321B9BCA7F9A4A26C54
310
2347DEE050F09802D22BA6749A800A394DD62899107273365E3C82CFC6A55557BC06C10774B7ABE7AEC3B0F34CF06446280E154026D0542C187BA9DAB6628BF7B6DBB0E566B17C62EB0D63BCC976C107EF6DB9843110FC449477095CA2A2E54D1E3FC2577C449B80AC7D38FD01240228AD173AB78CFFCCA739BF6FC415F02F
310
103F504B0304140006080800AC70623B2EA4D28F640500003C100000340000006662782F33394334313030352D393437462D344341332D393833322D3144373644414336394143352F6F626A656374732E786D6CAD575D739B3814FD2B0CFB6C30B1D3263B844E6CC71D4F376DA79E76F621331E01326103122389C4E9AFDF
310
231018B09D7A3FFC609090EEE7B94757FE875D9E59CF54C894B31BDB73C6B64559C4E394253776A9B6A32BDBFA10F88273D559665B8CE4F4C6D6D376E027829785998AE99694991ACC2E677F5A32A28CDA569411296F6C193DD29C38A4543CA6F2C98989224EB2DD399E532FEC8B4D04291E07420B222853B014F30C52ACDA
310
28AF3F1CDB6EE0BBFA7BE0EB7FB36A727A955BF9D3D79F32A9088B0E940DC44CBCE9E2EEE2F27A74399D4E46D37717DE68B69C2D46DEFBC978FE6E3EBFBEBDBB8662A90424194B04DDDAC147C446A491EFD69F5A8B8DE1C74C8A386334AAFC878795CD46624C0BCA62E431A512DA3A5E8FFB434FC7A6F379A2C7466577FA3C
310
AFBA3B3A821ADB9B67D7521EFE0517E439A810926A54D5F1318ED6F81BEFA316729E996FA9B472A2A84849666569288878B5032CD54B02BF2746A35368846B0FECC0DBCBEBDA8AD2F835768F59B92DB34C43D30E2A646F807FAA646559FA938AE3DA60137255A64C5D1987D46B41EDE0DA77ABC9C0D78FC985F95807D2DA66
310
2441CAE166FD75E0E85CD7DE6A61079F96E16EADEBF1B8F242F0820AA5E1036835896B9E3A4A46AD7756E6F40638D38BF93E28DF10F9CF28DFBD29C89B4877D3DDD468518230B9E522476E9C71F5B3C6CDCBA87D3B7C019F0D561FAE6967FED562DF6D8DED13C6A9FC015C3A3557FF3D7FFD987591DA495FE03FA3C0B89898
310
50AE2392817AEE53868468505A19C714B87C1BEEEC6005A604B36317C9823620072FBEFB8CEFF8AF6583AD2AF59D274342077C7B06F323965559C0B6136039E0C94AB171EE54CC2FFF979AB95DAC3FAD4BB12511BD37C4B2A0DB94A50A67E71EBC5D837A89E879F4445F5FB888E1E86112D6DD24E4469544B475CC75E093E6
310
B0D083BDE69E8208FB12AE39CFFF8586FB544634CB08A3BC6CB4B4C790C66A4B32A64F4015D6019D5C0C502CE873AA3B89DE8A9E5938EB2391163A64EDA1D7F2B473C297EFABCF00A51DCC5EFF20AF5DC20CF7741FF18C8B4DF8BAA999D006F8B0A78FEE1F7D789B88BA5A0A105F61B9A11C13E24D9C6EB7A504EF1E89E28F
310
D5BC9BA996480E5F9A026A34D63539053BA3F68830F06D74A2211004073B679B14C738CAF2A8F2AEEEA10259C93D213F2CF36243725E32754E98C68D3F8DF5ADF06E17235F888A1EED605D3D473350764CE31309D547D0119F7AE979FFFEEA6E727BBD1C79B74BB4529717CBD1D5E5DC1B79B3B977395B4C96EF2638E6FA15
310
D09C50DD1A44347122FAA5484D98BFAFF6656B07F74449F7635D506E523FBFAF1CB4C5BE8B3D0078BB71951719CD295344C3F75EBF64DF08BA8A9E8C7A7E9593849E21E5CBC7F5C006CC9CB1EFAB2E35FA32D86B66E7BA168E0A518F651E329266838DC671A7608971BB0965FBAC19BD19EA918927FA50C9B33406E1C45642
310
794E1568E70CB6173995404CB72B8FCDEDE18CDDCF753FA84898D1C6924782963893403548A78C547FDEFA0D2D9CEEA26E6C1C76CE13FE4C21DA16527D6383DF541A51E984381E75E353090704D085B52408D0139664E8ACEB4DEDB8DDA56303FAC10968F4B74BCEE9968C5F3DE2CD4951E0D4EED16A659B5110FD23C71B73
310
2CA2F01A96AAF5653FD13A53A909C03570A77DA0857832AA77A8AFB7DDF29C6A4D2F2267DD93DE04412D75A48848AA7B810EBA31E976F1D5452B60ADBE58455626C8E5F992468202CCA52E70A008A830320BA200D5F9EF0F5F05C75D34B7962920F030E779CE9919DC9ABBACB57EC4CD347E002D507DFD901763CF7BA8BA7E
310
7311D984445287C4F209134DC1690F065803200F8E53733D73750E06CB570BCB1C185308AD407BD094D6D7700BC5A36F8EBA54BA6459BCD9F8BBD552A040A0650FFE06504B0304140006080000AC70623B000000000000000000000000350000006662782F33394334313030352D393437462D344341332D393833322D3144
310
373644414336394143352F76657274696365732E62696E504B0304140006080800AC70623BF270F1330600000004000000360000006662782F33394334313030352D393437462D344341332D393833322D3144373644414336394143352F747269616E676C65732E62696E636660600000504B0304140006080000AC70623B
310
000000000000000000000000370000006662782F33394334313030352D393437462D344341332D393833322D3144373644414336394143352F617474726962757465732E62696E504B0304140006080800AC70623B08DA0BD19000000041010000360000006662782F33394334313030352D393437462D344341332D393833
310
322D3144373644414336394143352F6469726563746F72792E786D6C858F410AC3201045AF22B36F53E9A60B35CBEEBAE80D244E44489C6234F4F835464A48035D0DF398FF9F8AF63D0E6CC63039F212F8F9020C7D47C6792B21C5FE7403D62A1188E2E60C98D7234A5830286103A55745067B9D86B8A3CF9C7F90C11DE607
310
FB144396D7B6A82D282E9A152AD114D5EF2CB866EEE831B8EEA07A7BB5A8D7D61A2BAAEB7FD5F70921FF497D00504B0304140006080800AC70623B95BFD5E5FE000000A00100003B0000006662782F33394334313030352D393437462D344341332D393833322D3144373644414336394143352F7265736F75726365732F63
310
6F72652E786D6C8D50596E833010BD0A9ADFCA603B1B41C611699213F40296992456828DBC543D7E4DA052FBD79F99D15B344F4F1CBE8667F1893E18675B60258502AD76BDB1B71652BC921A8A8314DEB9F84B06855503B630C120C5CDBB342E907636A28D19B5AEC70554216084423FF3D142D0771C54A952CC8AF02847A5
310
1FEA86252B339D755284E87380627E324D901E834B5E6310D5CC4A9192E9178DE9F34F7335E841EE38DBEEF8A5239B13ADC9FA589FC971F77E2217BEDDAFB61DEBE8B916D56496229AE127A3F6A822F62039A57BC218A1FC83AD1BBA69F8E68DD60DA5A29AE47F4C69ECFF694AC6C6155FE2CEB60092E5202F428A6AEA2BAF
310
5799794FDDCA6F504B010214000A0000080000AC70623B3DEE336E79000000790000001B00000000000000000000000000000000006175746F6465736B2D64657369676E2D7061636B6167652E786D6C504B01021400140006080800AC70623BD486FD9CA0000000F40000001300000000000000000000000000B20000005B
310
436F6E74656E745F54797065735D2E786D6C504B01021400140006080800AC70623BFD5588D4EC0000007C010000080000000000000000000000000083010000636F72652E786D6C504B01021400140006080800AC70623B55019EA25F0000007C000000070000000000000000000000000095020000636E782E786D6C504B
310
01021400140006080800AC70623BB5D38BAD72010000D40300000C00000000000000000000000000190300006662782F636F72652E786D6C504B01021400140006080800AC70623B09885E1C7E0000009D0000000B00000000000000000000000000B50400006662782F636E782E786D6C504B01021400140006080800AC70
310
623B961D28872A0100001202000031000000000000000000000000005C0500006662782F33394334313030352D393437462D344341332D393833322D3144373644414336394143352F636F72652E786D6C504B01021400140006080800AC70623B503B51794E010000330300003000000000000000000000000000D5060000
310
6662782F33394334313030352D393437462D344341332D393833322D3144373644414336394143352F636E782E786D6C504B01021400140006080800AC70623B2EA4D28F640500003C1000003400000000000000000000000000710800006662782F33394334313030352D393437462D344341332D393833322D3144373644
310
414336394143352F6F626A656374732E786D6C504B01021400140006080000AC70623B0000000000000000000000003500000000000000000000000000270E00006662782F33394334313030352D393437462D344341332D393833322D3144373644414336394143352F76657274696365732E62696E504B01021400140006
310
080800AC70623BF270F133060000000400000036000000000000000000000000007A0E00006662782F33394334313030352D393437462D344341332D393833322D3144373644414336394143352F747269616E676C65732E62696E504B01021400140006080000AC70623B0000000000000000000000003700000000000000
310
000000000000D40E00006662782F33394334313030352D393437462D344341332D393833322D3144373644414336394143352F617474726962757465732E62696E504B01021400140006080800AC70623B08DA0BD190000000410100003600000000000000000000000000290F00006662782F33394334313030352D393437
310
462D344341332D393833322D3144373644414336394143352F6469726563746F72792E786D6C504B01021400140006080800AC70623B95BFD5E5FE000000A00100003B000000000000000000000000000D1000006662782F33394334313030352D393437462D344341332D393833322D3144373644414336394143352F7265
310
736F75726365732F636F72652E786D6C504B0506000000000E000E0080040000641100000000
  0
XRECORD
  5
244E
102
{ACAD_REACTORS
330
10B
102
}
330
10B
100
AcDbXrecord
280
     1
102
MATERIAL
148
0.0
149
0.0
149
0.0
 93
        0
 94
      127
282
     0
 72
     1
 77
     1
171
     1
175
     1
179
     1
273
     0
  0
XRECORD
  5
10D
102
{ACAD_REACTORS
330
10B
102
}
330
10B
100
AcDbXrecord
280
     1
270
     1
271
     1
  0
XRECORD
  5
10C
102
{ACAD_REACTORS
330
10B
102
}
330
10B
100
AcDbXrecord
280
     1
270
     1
271
     1
  0
XRECORD
  5
187
102
{ACAD_REACTORS
330
10B
102
}
330
10B
100
AcDbXrecord
280
     1
 70
     0
 90
1778669749
  1
7E355024-1ABF-47F9-966E-F2159FBE82AB
310
504B03040A0000080000AC70623B3DEE336E79000000790000001B0000006175746F6465736B2D64657369676E2D7061636B6167652E786D6C3C3F786D6C2076657273696F6E3D22312E302220656E636F64696E673D227574662D3822203F3E3C666F726D6174733E3C666F726D61743E687474703A2F2F736368656D612E
310
6175746F6465736B2E636F6D2F64657369676E2D7061636B6167652F323030393C2F666F726D61743E3C2F666F726D6174733E504B0304140006080800AC70623BD486FD9CA0000000F4000000130000005B436F6E74656E745F54797065735D2E786D6C7D8EC10E82300C865F65E91D8A1E8C310C0EEA1BF002731658846E
310
D98AC1B77784ABF1D8FE5FBFBF75BBCE937A534CCEB38643598122B6FEE978D0B0485F9C41B54DDD7D022595594E1A469170414C76A4D9A4D207E29CF43ECE46F218070CC6BECC4078ACAA135ACF422C856C0E68EA1BF5669944DDD7BCDE7B1F8E415D77AECB980613C2E4AC91FC167A2B244592486606FC29C8FD7F045B9A
310
EF7053A7E60B504B0304140006080800AC70623BDCE527C8EB0000007C01000008000000636F72652E786D6C8D90416EC3201045AF82665B6103B15DC7C24471249FA01740405C94182C03558F5F9C3852BBEB6A467FFE9B197D7EFA9EEFE8CBACC17AD7032D0820E394D7D64D3DA478C52DA093E0ABF7F1970D9093B3E961
310
9341F069F569D925E55D342E66D5796D76518660222075CF4D0F417D9A591632C5EC08B76291EA262753D05797E194AC46CF2356E77DF66ACD0A621C9B73335C463C5E0E1457EC9DE2A1612D3E9233A92BD2D66333F07283058F767EDD57AB91D168108C9023A61413F641AB8ED41DABDF48DB11C2CBCDFE074A8BFE2794AC
310
8B07B6BFFBC402089A1F790C042FB72C72790495EB969BF801504B0304140006080800AC70623B55019EA25F0000007C00000007000000636E782E786D6C4DCB3B0E80201045D1AD90E915ED2CF8AC45050C11660C8261F98AB1B07AC9C97D42D718D865D3E909258CFD00CCE24AC6E326A164D74DC0B4128928FF32603847
310
2BA13128B1252AC747C6BAB984FC68F0B87FE8960A5C09FE86CFB69FBA01504B0304140006080800AC70623BB24894EB71010000D40300000C0000006662782F636F72652E786D6CC5535B6E833010BC8AE5DF0A6C085012194749244ED00B38E05014B091B1518EDFE511A5A9D228FD2A1F60CDEC7A67C6986D2F6D830669
310
FA5AAB0C073EC548AA4297B5AA32ECECC94B31DA7266B4B6DFCA3052A295191E61CC5965B4EB16A8D0CA4A650155BA940B28FA5E5A8C8A061619EE8B4FD90A5F380B15FDD9EF44711695F4031F68A8E3ACB70604A079C8F8C6FC74BC3032E39C3957970B5B9730AD3ED5D2609EE7C92ED91F722F3FAC022F0ADF036F9F84A9
310
B7A63B1A47348DF364CFC8D8CC99ADDBABBAC2486165897948E9DA0B028F861F41B4A1F1268CDF68BAA19491B1FCAEC975E58B4DAE5676152E72E7B61EF300844CC40FB7109145BD18400FE18C8C21C2674AF83E68080442B6E2D85C7D9C011A6461B5898029B5BB5183689C84A9D4A7D3837E5F303277C2D4697370FD7046
310
F8F28CE73BC2510B5581096161797476D4C9660D4B689D34DE602F4869D38AE6351B4F1CFE89BA897F28A9D08D36FFA5882C074496DF838CF7917F01504B0304140006080800AC70623B3A54DFB77D0000009D0000000B0000006662782F636E782E786D6C4DCCD10A83201805E05791FFDEA5EBA76DA046A37C8F581632D3
310
613AF6F8B3D1C52E0E073E0E47B49FD591B7899B0D5E023F3120C63FC264FD2221A7995E81B44AC410D2DF0C881F5723616750628921BF0E9ACC3C66978A3AEB9F07B2A6D77AB87514F95953EC39D20EEF9C6AD60C88BC2EB940A544F57B2ABD1FAB2F504B0304140006080800AC70623B4A17098729010000120200003100
310
00006662782F30364446464539412D343132462D344431342D413442312D4630364534343133343431372F636F72652E786D6C8D515B6EC32010BC0AE22B55850D0E76930813A54A7C825E80DA244589C1E251E5F85D6A476AFFF2018B7667666759B1BF8F37F4AD7D30CEB6981514236D7B37187B69718A67B2C1682F8577
310
2EFE816164D5A85B9CD3588A8B77695A52BDB351DB0859EB06BD2455083A62D4DFE0D1E2D07FE951152A4540846B31A9FEAA2EBA600594012745881E0CA0B949BEB1A4CDB1EB4EDB03E1ACEA083F324E0EFC9D918E3627CED91ACE9B2867A214299961A19B01EC98B3D1FE59914C96229AF161BFF75A453D605951BA258C11
310
5A7D30BEA3F5AEAA5FE96647A92833FC1F294DC393A4646C5C578BDD9916B064A29C0B520C2E7DDE1E66F47D723EA2DC6F1574FF02531594D6AC69443903617C506CF8A218A2F3F0BDABEB2760593DCB365C8A326F08C2EFFA20E66DCA1F504B0304140006080800AC70623B503B51794E0100003303000030000000666278
310
2F30364446464539412D343132462D344431342D413442312D4630364534343133343431372F636E782E786D6CD593C16EC32010447F0571AD6CE3D489D20813A9877E410FBD62D82434182CC055F3F75D1292E692438FBD206B7698593D61BEFD1E2DF982108D773D6D6B460938E5B571FB9ECE6957AD29D90A1EBC4F7736
310
4A9C1CA1A759A682EF839FA72269D8C9D92654AD71C72206887E0E0A22CAF926B15E498B01E0AA19451807D01A34B919F16B070157417138917400F2F6FA41FCF0092A45DEE414C19BDC21783E4BD39D891265658C3D8DEA00A3ACE59CBC8678ACB54CB26EEB6BD7839D7E9348BE70AD9C8321B9BCA7F9A4A26C542347DEE0
310
50F09802D22BA6749A800A394DD62899107273365E3C82CFC6A55557BC06C10774B7ABE7AEC3B0F34CF06446280E154026D0542C187BA9DAB6628BF7B6DBB0E566B17C62EB0D63BCC976C107EF6DB9843110FC449477095CA2A2E54D1E3FC2577C449B80AC7D38FD01240228AD173AB78CFFCCA739BF6FC415F02F103F504B
310
0304140006080800AC70623BD8F6D0D5660500003B100000340000006662782F30364446464539412D343132462D344431342D413442312D4630364534343133343431372F6F626A656374732E786D6CAD575B8F9B3814FE2B887D064292B964C5504D92491555D3568D5AEDC348910187610730B2CD4C667FFD7E06438024
310
6DF6928780CDF1B97EE762EFC33E4B8D57CA45C2F23BD3B547A641F39045491EDF99A5DC59B7A6F1C1F73863B243661A39C9E89DA9B64DDF8B392B0BBD15D11D295339D85DCDFF304448736A1A614A84B83345F84C33629352B2888A173B2292D8F16E6FBB764DD8671B73523C0F981684D35C4253ECE7E062D44AB9FDE5C8
310
747CCF51DF7D4FFD6BAAC9792AA7B2A72F3FC985247978246CC066E24E970FE3AB9975359D4EACE9F5D8B5E6ABF9D2726F26A3C5F56231BB7F9841B0901C9CB4269CEE4CFF237CC393D073EA4FADC65AF1532A852CCF6958D90F0B2B9D35C78816348F10C7840A48EB583DEA2F5DE59BCEE7895A6B91DDEDCBACEA9EE8306A
310
746F9E5D4D59F0274C1097A0820BAA5055FB471B5AE36F74F05AC058AABF25C2C888A43C21A991260127FCDDF441AA487CAFC746A1932B842B0B4CDF3DF0EBEA8AD4F835764F69B92BD35441D3F42B646F817F2A45A559F217E5A7A54127C4AA4C7279AB0D92EF0535FD99E7549BBEA71E93B1FE583BD2D8A52446C86166FD
310
7560E842E5DE7A69FA9F56C17EA3F2F1B4F082B38272A9E0036835816B9ECA4B5AAC7B51E4D40118D3F3F9C129DFE0F9CF48DF832A881B4FF6D3FD544B919CE462C77886D8D8A3EA678C9A17AB7D3B7E413D1B501FD3B43BFF8AD8735A65FB05E35CFC002E159ADBFF1EBFBECFBA48ED84CFF75E91608C4FB42B372149517A
310
1E931C0151A03452862DD4F25DB037FD352A252A3B4E91D46F1D72F4E239AFF88EFF9A37AA5525BEF3CC11D041BDBDA0F2C397555A40B7336039AA9395606DDC399F5FFD2F3973BFDC7CDA947C4742FAA80BCB92EE923C91E89D07F07615EA05A267D10B7D7F633C82A1C741D8748390695102DE563E578E8F9B66A11607C9
310
3D0121CEC54CD53CEF17121E1311D2342539656523A56D430AAB6D91D17302B2B076E8643C4031A7AF899A247A143DB5D0EB439E14CA656DD36BEBB47DC696EFEBCF0025E8531690F440141CAA7DC852C6B7C1FBB62E8426B087237D70FFE8A35B3BD4515C00F80ACA4DC5D11EDE46C96E570A94DD134EFCB15E7403D5D691
310
E397267F1A89754A4E519C917A846BF43632310F7082BECEF26D822E8EAC3C29BC2B7B2840547CCFF00FCAACD8928C95B9BCC44DA3C69E46FB96797788116F4486CFA6BFA99ED61C153BA2D121543D10A80E74C2A65E786E1E265757A3F1D472EFE72B6B7AB39A59B3EBEB076B3576AF66ABF9C3EDF87EDE6A5469E27B4D83
310
EAA620BC8986E8953CD16EFEBE3E64ADE93F12299C8F753E3971FDFCBEB631157B0ECE00DFEDC17556A434A3B9240ABD8FEA25FD463054F478D4FBEB8CC4F4022E5F3E6E063A60E782735F55A6D1B7C159BDBB50B97092897C2EB32027493A38A80DB78B3CD66637AE6C9F75416F966AA5FD893154B03489506F2223A62CA3
310
1255E78262CF332A8098EE501EE9CBC305A75FEB71509220A58D26CF0413712A806AC0AD0C657FDFF80D139C1AA2EE4CF43AFB057F3A114D03A1BE3351DE6412526107E88E6AEEA998030218C2DA1A08A8913C4E3158D787DA757B4AF906E5070D50CB6F492E1996B45DBDBA9B91A240D3EE55D54A372D20FC478637EA1844
310
E23528656BCB61A335A61283CCAA8DD257034C102F5AF41EF9F573B35CBBA2E979E4A26BD24F415073B524E171752D50FA6995EE975F1D4C02C6FA8B51A4658C585ECEC9E214602E558203454085E6591009A82E7E7FFACA19AEA299B14A0081A705CB3296EBC5BDBECA1A9B675C4CA3279405AA6E1F623C72DDA76AE8D7F7
310
906D4004B549245EB0D1249CB260803500F2A89BEA10382A0603F2F5D2D00D630AA615688F66D2FA166E2079D4C551A54AB758163F9DFB9D8A1460E098D8FDBF01504B0304140006080000AC70623B000000000000000000000000350000006662782F30364446464539412D343132462D344431342D413442312D46303645
310
34343133343431372F76657274696365732E62696E504B0304140006080800AC70623BF270F1330600000004000000360000006662782F30364446464539412D343132462D344431342D413442312D4630364534343133343431372F747269616E676C65732E62696E636660600000504B0304140006080000AC70623B0000
310
00000000000000000000370000006662782F30364446464539412D343132462D344431342D413442312D4630364534343133343431372F617474726962757465732E62696E504B0304140006080800AC70623B08DA0BD19000000041010000360000006662782F30364446464539412D343132462D344431342D413442312D
310
4630364534343133343431372F6469726563746F72792E786D6C858F410AC3201045AF22B36F53E9A60B35CBEEBAE80D244E44489C6234F4F835464A48035D0DF398FF9F8AF63D0E6CC63039F212F8F9020C7D47C6792B21C5FE7403D62A1188E2E60C98D7234A5830286103A55745067B9D86B8A3CF9C7F90C11DE607FB14
310
4396D7B6A82D282E9A152AD114D5EF2CB866EEE831B8EEA07A7BB5A8D7D61A2BAAEB7FD5F70921FF497D00504B0304140006080800AC70623BB40F7AF9FE000000A00100003B0000006662782F30364446464539412D343132462D344431342D413442312D4630364534343133343431372F7265736F75726365732F636F72
310
652E786D6C8D504B6E833010BD0A9A6D65B00950828CA3109513F4029699502BC146FE543D7E4D42A576D7CDCCE87D344F8F9FBE967BF689CE6B6B7A6039850C8DB29336730F315C490BD94970676DF82583CCC8057BD860107C7636AE3BA4AC096842428D9D7007A5F7182053F774F4E0D5072E3297312485BFE5AB543739
310
63CEF244279DE03EB814207B3ED9260887DE46A7D0F3E2C90A1EA39E768D9ED24F7DD5E8408C63736E86CB1B192F0746AAF29591A1295B72A4675A57B4ADC766E0C566163CE8E527A37228034E204A4A8F843142CB775675B4EECAFA85B61DA5BCD8E47F4C719DFE698ADA8443B9C77DDA3C0896823C08C18BADAFB41E65A6
310
BD752BBE01504B010214000A0000080000AC70623B3DEE336E79000000790000001B00000000000000000000000000000000006175746F6465736B2D64657369676E2D7061636B6167652E786D6C504B01021400140006080800AC70623BD486FD9CA0000000F40000001300000000000000000000000000B20000005B436F
310
6E74656E745F54797065735D2E786D6C504B01021400140006080800AC70623BDCE527C8EB0000007C010000080000000000000000000000000083010000636F72652E786D6C504B01021400140006080800AC70623B55019EA25F0000007C000000070000000000000000000000000094020000636E782E786D6C504B0102
310
1400140006080800AC70623BB24894EB71010000D40300000C00000000000000000000000000180300006662782F636F72652E786D6C504B01021400140006080800AC70623B3A54DFB77D0000009D0000000B00000000000000000000000000B30400006662782F636E782E786D6C504B01021400140006080800AC70623B
310
4A17098729010000120200003100000000000000000000000000590500006662782F30364446464539412D343132462D344431342D413442312D4630364534343133343431372F636F72652E786D6C504B01021400140006080800AC70623B503B51794E010000330300003000000000000000000000000000D10600006662
310
782F30364446464539412D343132462D344431342D413442312D4630364534343133343431372F636E782E786D6C504B01021400140006080800AC70623BD8F6D0D5660500003B10000034000000000000000000000000006D0800006662782F30364446464539412D343132462D344431342D413442312D46303645343431
310
33343431372F6F626A656374732E786D6C504B01021400140006080000AC70623B0000000000000000000000003500000000000000000000000000250E00006662782F30364446464539412D343132462D344431342D413442312D4630364534343133343431372F76657274696365732E62696E504B010214001400060808
310
00AC70623BF270F13306000000040000003600000000000000000000000000780E00006662782F30364446464539412D343132462D344431342D413442312D4630364534343133343431372F747269616E676C65732E62696E504B01021400140006080000AC70623B00000000000000000000000037000000000000000000
310
00000000D20E00006662782F30364446464539412D343132462D344431342D413442312D4630364534343133343431372F617474726962757465732E62696E504B01021400140006080800AC70623B08DA0BD190000000410100003600000000000000000000000000270F00006662782F30364446464539412D343132462D
310
344431342D413442312D4630364534343133343431372F6469726563746F72792E786D6C504B01021400140006080800AC70623BB40F7AF9FE000000A00100003B000000000000000000000000000B1000006662782F30364446464539412D343132462D344431342D413442312D4630364534343133343431372F7265736F
310
75726365732F636F72652E786D6C504B0506000000000E000E0080040000621100000000
  0
XRECORD
  5
10E
102
{ACAD_REACTORS
330
10B
102
}
330
10B
100
AcDbXrecord
280
     1
270
     1
271
     1
  0
XRECORD
  5
10F
102
{ACAD_REACTORS
330
10B
102
}
330
10B
100
AcDbXrecord
280
     1
270
     1
271
     1
  0
XRECORD
  5
2480
102
{ACAD_REACTORS
330
1C1
102
}
330
1C1
100
AcDbXrecord
280
     1
102
DISPLAYNAME
  1
Imperial24
102
FLAGS
 90
        0
  0
XRECORD
  5
2483
102
{ACAD_REACTORS
330
2482
102
}
330
2482
100
AcDbXrecord
280
     1
102
DISPLAYNAME
  1
Metric50
102
FLAGS
 90
        0
  0
CELLSTYLEMAP
  5
24B0
102
{ACAD_REACTORS
330
FF
102
}
330
FF
100
AcDbCellStyleMap
 90
        3
300
CELLSTYLE
  1
TABLEFORMAT_BEGIN
 90
        5
170
     1
 91
        0
 92
    32768
 62
   257
 93
        1
300
CONTENTFORMAT
  1
CONTENTFORMAT_BEGIN
 90
        0
 91
        0
 92
      512
 93
        0
300

 40
0.0
140
1.0
 94
        5
 62
     0
340
11
144
0.25
309
CONTENTFORMAT_END
171
     1
301
MARGIN
  1
CELLMARGIN_BEGIN
 40
0.06
 40
0.06
 40
0.06
 40
0.06
 40
0.18
 40
0.18
309
CELLMARGIN_END
 94
        6
 95
        1
302
GRIDFORMAT
  1
GRIDFORMAT_BEGIN
 90
        0
 91
        1
 62
     0
 92
       -2
340
0
 93
        0
 40
0.045
309
GRIDFORMAT_END
 95
        2
302
GRIDFORMAT
  1
GRIDFORMAT_BEGIN
 90
        0
 91
        1
 62
     0
 92
       -2
340
0
 93
        0
 40
0.045
309
GRIDFORMAT_END
 95
        4
302
GRIDFORMAT
  1
GRIDFORMAT_BEGIN
 90
        0
 91
        1
 62
     0
 92
       -2
340
0
 93
        0
 40
0.045
309
GRIDFORMAT_END
 95
        8
302
GRIDFORMAT
  1
GRIDFORMAT_BEGIN
 90
        0
 91
        1
 62
     0
 92
       -2
340
0
 93
        0
 40
0.045
309
GRIDFORMAT_END
 95
       16
302
GRIDFORMAT
  1
GRIDFORMAT_BEGIN
 90
        0
 91
        1
 62
     0
 92
       -2
340
0
 93
        0
 40
0.045
309
GRIDFORMAT_END
 95
       32
302
GRIDFORMAT
  1
GRIDFORMAT_BEGIN
 90
        0
 91
        1
 62
     0
 92
       -2
340
0
 93
        0
 40
0.045
309
GRIDFORMAT_END
309
TABLEFORMAT_END
  1
CELLSTYLE_BEGIN
 90
        1
 91
        1
300
_TITLE
309
CELLSTYLE_END
300
CELLSTYLE
  1
TABLEFORMAT_BEGIN
 90
        5
170
     1
 91
        0
 92
        0
 62
   257
 93
        1
300
CONTENTFORMAT
  1
CONTENTFORMAT_BEGIN
 90
        0
 91
        0
 92
      512
 93
        0
300

 40
0.0
140
1.0
 94
        5
 62
     0
340
11
144
0.18
309
CONTENTFORMAT_END
171
     1
301
MARGIN
  1
CELLMARGIN_BEGIN
 40
0.06
 40
0.06
 40
0.06
 40
0.06
 40
0.18
 40
0.18
309
CELLMARGIN_END
 94
        6
 95
        1
302
GRIDFORMAT
  1
GRIDFORMAT_BEGIN
 90
        0
 91
        1
 62
     0
 92
       -2
340
0
 93
        0
 40
0.045
309
GRIDFORMAT_END
 95
        2
302
GRIDFORMAT
  1
GRIDFORMAT_BEGIN
 90
        0
 91
        1
 62
     0
 92
       -2
340
0
 93
        0
 40
0.045
309
GRIDFORMAT_END
 95
        4
302
GRIDFORMAT
  1
GRIDFORMAT_BEGIN
 90
        0
 91
        1
 62
     0
 92
       -2
340
0
 93
        0
 40
0.045
309
GRIDFORMAT_END
 95
        8
302
GRIDFORMAT
  1
GRIDFORMAT_BEGIN
 90
        0
 91
        1
 62
     0
 92
       -2
340
0
 93
        0
 40
0.045
309
GRIDFORMAT_END
 95
       16
302
GRIDFORMAT
  1
GRIDFORMAT_BEGIN
 90
        0
 91
        1
 62
     0
 92
       -2
340
0
 93
        0
 40
0.045
309
GRIDFORMAT_END
 95
       32
302
GRIDFORMAT
  1
GRIDFORMAT_BEGIN
 90
        0
 91
        1
 62
     0
 92
       -2
340
0
 93
        0
 40
0.045
309
GRIDFORMAT_END
309
TABLEFORMAT_END
  1
CELLSTYLE_BEGIN
 90
        2
 91
        1
300
_HEADER
309
CELLSTYLE_END
300
CELLSTYLE
  1
TABLEFORMAT_BEGIN
 90
        5
170
     1
 91
        0
 92
        0
 62
   257
 93
        1
300
CONTENTFORMAT
  1
CONTENTFORMAT_BEGIN
 90
        0
 91
        0
 92
      512
 93
        0
300

 40
0.0
140
1.0
 94
        2
 62
     0
340
11
144
0.18
309
CONTENTFORMAT_END
171
     1
301
MARGIN
  1
CELLMARGIN_BEGIN
 40
0.06
 40
0.06
 40
0.06
 40
0.06
 40
0.18
 40
0.18
309
CELLMARGIN_END
 94
        6
 95
        1
302
GRIDFORMAT
  1
GRIDFORMAT_BEGIN
 90
        0
 91
        1
 62
     0
 92
       -2
340
0
 93
        0
 40
0.045
309
GRIDFORMAT_END
 95
        2
302
GRIDFORMAT
  1
GRIDFORMAT_BEGIN
 90
        0
 91
        1
 62
     0
 92
       -2
340
0
 93
        0
 40
0.045
309
GRIDFORMAT_END
 95
        4
302
GRIDFORMAT
  1
GRIDFORMAT_BEGIN
 90
        0
 91
        1
 62
     0
 92
       -2
340
0
 93
        0
 40
0.045
309
GRIDFORMAT_END
 95
        8
302
GRIDFORMAT
  1
GRIDFORMAT_BEGIN
 90
        0
 91
        1
 62
     0
 92
       -2
340
0
 93
        0
 40
0.045
309
GRIDFORMAT_END
 95
       16
302
GRIDFORMAT
  1
GRIDFORMAT_BEGIN
 90
        0
 91
        1
 62
     0
 92
       -2
340
0
 93
        0
 40
0.045
309
GRIDFORMAT_END
 95
       32
302
GRIDFORMAT
  1
GRIDFORMAT_BEGIN
 90
        0
 91
        1
 62
     0
 92
       -2
340
0
 93
        0
 40
0.045
309
GRIDFORMAT_END
309
TABLEFORMAT_END
  1
CELLSTYLE_BEGIN
 90
        3
 91
        2
300
_DATA
309
CELLSTYLE_END
  0
XRECORD
  5
24B2
102
{ACAD_REACTORS
330
FF
102
}
330
FF
100
AcDbXrecord
280
     1
102
ACAD_ROUNDTRIP_PRE2007_TABLESTYLE
 90
      512
 91
        0
  1

 92
      512
 93
        0
  2

 94
      512
 95
        0
  3

  0
XRECORD
  5
245A
102
{ACAD_REACTORS
330
2459
102
}
330
2459
100
AcDbXrecord
280
     1
102
RTVSPost2010Prop28
280
     1
102
RTVSPost2010PropOp28
 70
     1
102
RTVSPost2010Prop29
280
     1
102
RTVSPost2010PropOp29
 70
     1
102
RTVSPost2010Prop30
280
     0
102
RTVSPost2010PropOp30
 70
     1
102
RTVSPost2010Prop31
280
     0
102
RTVSPost2010PropOp31
 70
     1
102
RTVSPost2010Prop32
280
     0
102
RTVSPost2010PropOp32
 70
     1
102
RTVSPost2010Prop33
280
     0
102
RTVSPost2010PropOp33
 70
     1
102
RTVSPost2010Prop34
280
     0
102
RTVSPost2010PropOp34
 70
     1
102
RTVSPost2010Prop35
280
     0
102
RTVSPost2010PropOp35
 70
     1
102
RTVSPost2010Prop36
280
     0
102
RTVSPost2010PropOp36
 70
     1
102
RTVSPost2010Prop37
 90
       50
102
RTVSPost2010PropOp37
 70
     1
102
RTVSPost2010Prop38
140
0.0
102
RTVSPost2010PropOp38
 70
     1
102
RTVSPost2010Prop39
140
1.0
102
RTVSPost2010PropOp39
 70
     1
102
RTVSPost2010Prop40
 90
        0
102
RTVSPost2010PropOp40
 70
     1
102
RTVSPost2010Prop41ColorIndex
 90
       18
102
RTVSPost2010Prop41ColorRGB
 90
        0
102
RTVSPost2010PropOp41
 70
     1
102
RTVSPost2010Prop42
 90
       50
102
RTVSPost2010PropOp42
 70
     1
102
RTVSPost2010Prop43
 90
        3
102
RTVSPost2010PropOp43
 70
     1
102
RTVSPost2010Prop44ColorIndex
 90
        5
102
RTVSPost2010Prop44ColorRGB
 90
      255
102
RTVSPost2010PropOp44
 70
     1
102
RTVSPost2010Prop45
280
     0
102
RTVSPost2010PropOp45
 70
     1
102
RTVSPost2010Prop46
 90
       50
102
RTVSPost2010PropOp46
 70
     1
102
RTVSPost2010Prop47
 90
       50
102
RTVSPost2010PropOp47
 70
     1
102
RTVSPost2010Prop48
 90
       50
102
RTVSPost2010PropOp48
 70
     1
102
RTVSPost2010Prop49
280
     0
102
RTVSPost2010PropOp49
 70
     1
102
RTVSPost2010Prop50
 90
       50
102
RTVSPost2010PropOp50
 70
     1
102
RTVSPost2010Prop51ColorIndex
 90
      256
102
RTVSPost2010Prop51ColorRGB
 90
-16777216
102
RTVSPost2010PropOp51
 70
     0
102
RTVSPost2010Prop52
140
1.0
102
RTVSPost2010PropOp52
 70
     0
102
RTVSPost2010Prop53
 90
        2
102
RTVSPost2010PropOp53
 70
     1
102
RTVSPost2010Prop54
  1
strokes_ogs.tif
102
RTVSPost2010PropOp54
 70
     1
102
RTVSPost2010Prop55
280
     0
102
RTVSPost2010PropOp55
 70
     1
102
RTVSPost2010Prop56
140
1.0
102
RTVSPost2010PropOp56
 70
     1
102
RTVSPost2010Prop57
140
1.0
102
RTVSPost2010PropOp57
 70
     1
102
RTVSPropertyOp33
 70
     1
102
RTVSPropertyOp34
 70
     1
102
RTVSPropertyOp35
 70
     1
102
RTVSPropertyOp36
 70
     1
102
RTVSPropertyOp37
 70
     1
102
RTVSPropertyOp38
 70
     1
102
RTVSPropertyOp39
 70
     1
102
RTVSPropertyOp40
 70
     1
102
RTVSPropertyOp41
 70
     1
102
RTVSPropertyOp42
 70
     1
102
RTVSPropertyOp43
 70
     1
102
RTVSPropertyOp44
 70
     1
102
RTVSPropertyOp45
 70
     1
102
RTVSPropertyOp46
 70
     1
102
RTVSPropertyOp47
 70
     1
102
RTVSPropertyOp48
 70
     1
102
RTVSPropertyOp49
 70
     1
102
RTVSPropertyOp50
 70
     1
102
RTVSPropertyOp51
 70
     0
102
RTVSPropertyOp52
 70
     0
102
RTVSPropertyOp53
 70
     1
102
RTVSPropertyOp54
 70
     1
102
RTVSPropertyOp55
 70
     1
102
RTVSPropertyOp56
 70
     1
102
RTVSPropertyOp57
 70
     1
102
RTVSPropertyOp58
 70
     1
102
RTVSPropertyOp59
 70
     1
102
RTVSPropertyOp60
 70
     1
102
RTVSPropertyOp61
 70
     1
102
RTVSPropertyOp62
 70
     1
102
RTVSPropertyOp0
 70
     1
102
RTVSPropertyOp1
 70
     1
102
RTVSPropertyOp2
 70
     1
102
RTVSPropertyOp3
 70
     1
102
RTVSPropertyOp4
 70
     1
102
RTVSPropertyOp5
 70
     1
102
RTVSPropertyOp6
 70
     1
102
RTVSPropertyOp7
 70
     1
102
RTVSPropertyOp8
 70
     1
102
RTVSPropertyOp9
 70
     1
102
RTVSPropertyOp10
 70
     1
102
RTVSPropertyOp11
 70
     1
102
RTVSPropertyOp12
 70
     1
102
RTVSPropertyOp13
 70
     1
102
RTVSPropertyOp14
 70
     1
102
RTVSPropertyOp15
 70
     1
102
RTVSPropertyOp16
 70
     1
102
RTVSPropertyOp17
 70
     1
102
RTVSPropertyOp18
 70
     1
102
RTVSPropertyOp19
 70
     1
102
RTVSPropertyOp20
 70
     1
102
RTVSPropertyOp21
 70
     1
102
RTVSPropertyOp22
 70
     1
102
RTVSPropertyOp23
 70
     1
102
RTVSPropertyOp24
 70
     1
102
RTVSPropertyOp25
 70
     1
102
RTVSPropertyOp26
 70
     1
102
RTVSPropertyOp27
 70
     1
102
RTVSPropertyOp28
 70
     1
102
RTVSPropertyOp29
 70
     1
102
RTVSPropertyOp30
 70
     1
102
RTVSPropertyOp31
 70
     1
102
RTVSPropertyOp32
 70
     1
  0
XRECORD
  5
2458
102
{ACAD_REACTORS
330
2457
102
}
330
2457
100
AcDbXrecord
280
     1
102
RTVSPost2010Prop28
280
     0
102
RTVSPost2010PropOp28
 70
     1
102
RTVSPost2010Prop29
280
     1
102
RTVSPost2010PropOp29
 70
     1
102
RTVSPost2010Prop30
280
     1
102
RTVSPost2010PropOp30
 70
     1
102
RTVSPost2010Prop31
280
     0
102
RTVSPost2010PropOp31
 70
     1
102
RTVSPost2010Prop32
280
     0
102
RTVSPost2010PropOp32
 70
     1
102
RTVSPost2010Prop33
280
     0
102
RTVSPost2010PropOp33
 70
     1
102
RTVSPost2010Prop34
280
     0
102
RTVSPost2010PropOp34
 70
     1
102
RTVSPost2010Prop35
280
     0
102
RTVSPost2010PropOp35
 70
     1
102
RTVSPost2010Prop36
280
     0
102
RTVSPost2010PropOp36
 70
     1
102
RTVSPost2010Prop37
 90
       50
102
RTVSPost2010PropOp37
 70
     1
102
RTVSPost2010Prop38
140
0.0
102
RTVSPost2010PropOp38
 70
     1
102
RTVSPost2010Prop39
140
1.0
102
RTVSPost2010PropOp39
 70
     1
102
RTVSPost2010Prop40
 90
        0
102
RTVSPost2010PropOp40
 70
     1
102
RTVSPost2010Prop41ColorIndex
 90
       18
102
RTVSPost2010Prop41ColorRGB
 90
        0
102
RTVSPost2010PropOp41
 70
     1
102
RTVSPost2010Prop42
 90
       50
102
RTVSPost2010PropOp42
 70
     1
102
RTVSPost2010Prop43
 90
        3
102
RTVSPost2010PropOp43
 70
     1
102
RTVSPost2010Prop44ColorIndex
 90
        5
102
RTVSPost2010Prop44ColorRGB
 90
      255
102
RTVSPost2010PropOp44
 70
     1
102
RTVSPost2010Prop45
280
     0
102
RTVSPost2010PropOp45
 70
     1
102
RTVSPost2010Prop46
 90
       50
102
RTVSPost2010PropOp46
 70
     1
102
RTVSPost2010Prop47
 90
       50
102
RTVSPost2010PropOp47
 70
     1
102
RTVSPost2010Prop48
 90
       50
102
RTVSPost2010PropOp48
 70
     1
102
RTVSPost2010Prop49
280
     0
102
RTVSPost2010PropOp49
 70
     1
102
RTVSPost2010Prop50
 90
       50
102
RTVSPost2010PropOp50
 70
     1
102
RTVSPost2010Prop51ColorIndex
 90
      256
102
RTVSPost2010Prop51ColorRGB
 90
-16777216
102
RTVSPost2010PropOp51
 70
     0
102
RTVSPost2010Prop52
140
1.0
102
RTVSPost2010PropOp52
 70
     0
102
RTVSPost2010Prop53
 90
        2
102
RTVSPost2010PropOp53
 70
     1
102
RTVSPost2010Prop54
  1
strokes_ogs.tif
102
RTVSPost2010PropOp54
 70
     1
102
RTVSPost2010Prop55
280
     0
102
RTVSPost2010PropOp55
 70
     1
102
RTVSPost2010Prop56
140
1.0
102
RTVSPost2010PropOp56
 70
     1
102
RTVSPost2010Prop57
140
1.0
102
RTVSPost2010PropOp57
 70
     1
102
RTVSPropertyOp33
 70
     1
102
RTVSPropertyOp34
 70
     1
102
RTVSPropertyOp35
 70
     1
102
RTVSPropertyOp36
 70
     1
102
RTVSPropertyOp37
 70
     1
102
RTVSPropertyOp38
 70
     1
102
RTVSPropertyOp39
 70
     1
102
RTVSPropertyOp40
 70
     1
102
RTVSPropertyOp41
 70
     1
102
RTVSPropertyOp42
 70
     1
102
RTVSPropertyOp43
 70
     1
102
RTVSPropertyOp44
 70
     1
102
RTVSPropertyOp45
 70
     1
102
RTVSPropertyOp46
 70
     1
102
RTVSPropertyOp47
 70
     1
102
RTVSPropertyOp48
 70
     1
102
RTVSPropertyOp49
 70
     1
102
RTVSPropertyOp50
 70
     1
102
RTVSPropertyOp51
 70
     0
102
RTVSPropertyOp52
 70
     0
102
RTVSPropertyOp53
 70
     1
102
RTVSPropertyOp54
 70
     1
102
RTVSPropertyOp55
 70
     1
102
RTVSPropertyOp56
 70
     1
102
RTVSPropertyOp57
 70
     1
102
RTVSPropertyOp58
 70
     1
102
RTVSPropertyOp59
 70
     1
102
RTVSPropertyOp60
 70
     1
102
RTVSPropertyOp61
 70
     1
102
RTVSPropertyOp62
 70
     1
102
RTVSPropertyOp0
 70
     1
102
RTVSPropertyOp1
 70
     1
102
RTVSPropertyOp2
 70
     1
102
RTVSPropertyOp3
 70
     1
102
RTVSPropertyOp4
 70
     1
102
RTVSPropertyOp5
 70
     1
102
RTVSPropertyOp6
 70
     1
102
RTVSPropertyOp7
 70
     1
102
RTVSPropertyOp8
 70
     1
102
RTVSPropertyOp9
 70
     1
102
RTVSPropertyOp10
 70
     1
102
RTVSPropertyOp11
 70
     1
102
RTVSPropertyOp12
 70
     1
102
RTVSPropertyOp13
 70
     1
102
RTVSPropertyOp14
 70
     1
102
RTVSPropertyOp15
 70
     1
102
RTVSPropertyOp16
 70
     1
102
RTVSPropertyOp17
 70
     1
102
RTVSPropertyOp18
 70
     1
102
RTVSPropertyOp19
 70
     1
102
RTVSPropertyOp20
 70
     1
102
RTVSPropertyOp21
 70
     1
102
RTVSPropertyOp22
 70
     1
102
RTVSPropertyOp23
 70
     1
102
RTVSPropertyOp24
 70
     1
102
RTVSPropertyOp25
 70
     1
102
RTVSPropertyOp26
 70
     1
102
RTVSPropertyOp27
 70
     1
102
RTVSPropertyOp28
 70
     1
102
RTVSPropertyOp29
 70
     1
102
RTVSPropertyOp30
 70
     1
102
RTVSPropertyOp31
 70
     1
102
RTVSPropertyOp32
 70
     1
  0
XRECORD
  5
2466
102
{ACAD_REACTORS
330
2465
102
}
330
2465
100
AcDbXrecord
280
     1
102
RTVSPost2010Prop28
280
     0
102
RTVSPost2010PropOp28
 70
     1
102
RTVSPost2010Prop29
280
     1
102
RTVSPost2010PropOp29
 70
     1
102
RTVSPost2010Prop30
280
     1
102
RTVSPost2010PropOp30
 70
     1
102
RTVSPost2010Prop31
280
     0
102
RTVSPost2010PropOp31
 70
     1
102
RTVSPost2010Prop32
280
     0
102
RTVSPost2010PropOp32
 70
     1
102
RTVSPost2010Prop33
280
     0
102
RTVSPost2010PropOp33
 70
     1
102
RTVSPost2010Prop34
280
     0
102
RTVSPost2010PropOp34
 70
     1
102
RTVSPost2010Prop35
280
     0
102
RTVSPost2010PropOp35
 70
     1
102
RTVSPost2010Prop36
280
     0
102
RTVSPost2010PropOp36
 70
     1
102
RTVSPost2010Prop37
 90
       50
102
RTVSPost2010PropOp37
 70
     1
102
RTVSPost2010Prop38
140
0.0
102
RTVSPost2010PropOp38
 70
     1
102
RTVSPost2010Prop39
140
1.0
102
RTVSPost2010PropOp39
 70
     1
102
RTVSPost2010Prop40
 90
        0
102
RTVSPost2010PropOp40
 70
     1
102
RTVSPost2010Prop41ColorIndex
 90
       18
102
RTVSPost2010Prop41ColorRGB
 90
        0
102
RTVSPost2010PropOp41
 70
     1
102
RTVSPost2010Prop42
 90
       50
102
RTVSPost2010PropOp42
 70
     1
102
RTVSPost2010Prop43
 90
        3
102
RTVSPost2010PropOp43
 70
     1
102
RTVSPost2010Prop44ColorIndex
 90
        5
102
RTVSPost2010Prop44ColorRGB
 90
      255
102
RTVSPost2010PropOp44
 70
     1
102
RTVSPost2010Prop45
280
     0
102
RTVSPost2010PropOp45
 70
     1
102
RTVSPost2010Prop46
 90
       50
102
RTVSPost2010PropOp46
 70
     1
102
RTVSPost2010Prop47
 90
       50
102
RTVSPost2010PropOp47
 70
     1
102
RTVSPost2010Prop48
 90
       50
102
RTVSPost2010PropOp48
 70
     1
102
RTVSPost2010Prop49
280
     0
102
RTVSPost2010PropOp49
 70
     1
102
RTVSPost2010Prop50
 90
       50
102
RTVSPost2010PropOp50
 70
     1
102
RTVSPost2010Prop51ColorIndex
 90
      256
102
RTVSPost2010Prop51ColorRGB
 90
-16777216
102
RTVSPost2010PropOp51
 70
     0
102
RTVSPost2010Prop52
140
1.0
102
RTVSPost2010PropOp52
 70
     0
102
RTVSPost2010Prop53
 90
        2
102
RTVSPost2010PropOp53
 70
     1
102
RTVSPost2010Prop54
  1
strokes_ogs.tif
102
RTVSPost2010PropOp54
 70
     1
102
RTVSPost2010Prop55
280
     0
102
RTVSPost2010PropOp55
 70
     1
102
RTVSPost2010Prop56
140
1.0
102
RTVSPost2010PropOp56
 70
     1
102
RTVSPost2010Prop57
140
1.0
102
RTVSPost2010PropOp57
 70
     1
102
RTVSPropertyOp33
 70
     1
102
RTVSPropertyOp34
 70
     1
102
RTVSPropertyOp35
 70
     1
102
RTVSPropertyOp36
 70
     1
102
RTVSPropertyOp37
 70
     1
102
RTVSPropertyOp38
 70
     1
102
RTVSPropertyOp39
 70
     1
102
RTVSPropertyOp40
 70
     1
102
RTVSPropertyOp41
 70
     1
102
RTVSPropertyOp42
 70
     1
102
RTVSPropertyOp43
 70
     1
102
RTVSPropertyOp44
 70
     1
102
RTVSPropertyOp45
 70
     1
102
RTVSPropertyOp46
 70
     1
102
RTVSPropertyOp47
 70
     1
102
RTVSPropertyOp48
 70
     1
102
RTVSPropertyOp49
 70
     1
102
RTVSPropertyOp50
 70
     1
102
RTVSPropertyOp51
 70
     0
102
RTVSPropertyOp52
 70
     0
102
RTVSPropertyOp53
 70
     1
102
RTVSPropertyOp54
 70
     1
102
RTVSPropertyOp55
 70
     1
102
RTVSPropertyOp56
 70
     1
102
RTVSPropertyOp57
 70
     1
102
RTVSPropertyOp58
 70
     1
102
RTVSPropertyOp59
 70
     1
102
RTVSPropertyOp60
 70
     1
102
RTVSPropertyOp61
 70
     1
102
RTVSPropertyOp62
 70
     1
102
RTVSPropertyOp0
 70
     1
102
RTVSPropertyOp1
 70
     1
102
RTVSPropertyOp2
 70
     1
102
RTVSPropertyOp3
 70
     1
102
RTVSPropertyOp4
 70
     1
102
RTVSPropertyOp5
 70
     1
102
RTVSPropertyOp6
 70
     1
102
RTVSPropertyOp7
 70
     1
102
RTVSPropertyOp8
 70
     1
102
RTVSPropertyOp9
 70
     1
102
RTVSPropertyOp10
 70
     1
102
RTVSPropertyOp11
 70
     1
102
RTVSPropertyOp12
 70
     1
102
RTVSPropertyOp13
 70
     1
102
RTVSPropertyOp14
 70
     1
102
RTVSPropertyOp15
 70
     1
102
RTVSPropertyOp16
 70
     1
102
RTVSPropertyOp17
 70
     1
102
RTVSPropertyOp18
 70
     1
102
RTVSPropertyOp19
 70
     1
102
RTVSPropertyOp20
 70
     1
102
RTVSPropertyOp21
 70
     1
102
RTVSPropertyOp22
 70
     1
102
RTVSPropertyOp23
 70
     1
102
RTVSPropertyOp24
 70
     1
102
RTVSPropertyOp25
 70
     1
102
RTVSPropertyOp26
 70
     1
102
RTVSPropertyOp27
 70
     1
102
RTVSPropertyOp28
 70
     1
102
RTVSPropertyOp29
 70
     1
102
RTVSPropertyOp30
 70
     1
102
RTVSPropertyOp31
 70
     1
102
RTVSPropertyOp32
 70
     1
  0
XRECORD
  5
246E
102
{ACAD_REACTORS
330
246D
102
}
330
246D
100
AcDbXrecord
280
     1
102
RTVSPost2010Prop28
280
     0
102
RTVSPost2010PropOp28
 70
     1
102
RTVSPost2010Prop29
280
     1
102
RTVSPost2010PropOp29
 70
     1
102
RTVSPost2010Prop30
280
     1
102
RTVSPost2010PropOp30
 70
     1
102
RTVSPost2010Prop31
280
     0
102
RTVSPost2010PropOp31
 70
     1
102
RTVSPost2010Prop32
280
     0
102
RTVSPost2010PropOp32
 70
     1
102
RTVSPost2010Prop33
280
     0
102
RTVSPost2010PropOp33
 70
     1
102
RTVSPost2010Prop34
280
     0
102
RTVSPost2010PropOp34
 70
     1
102
RTVSPost2010Prop35
280
     0
102
RTVSPost2010PropOp35
 70
     1
102
RTVSPost2010Prop36
280
     0
102
RTVSPost2010PropOp36
 70
     1
102
RTVSPost2010Prop37
 90
       50
102
RTVSPost2010PropOp37
 70
     1
102
RTVSPost2010Prop38
140
0.0
102
RTVSPost2010PropOp38
 70
     1
102
RTVSPost2010Prop39
140
1.0
102
RTVSPost2010PropOp39
 70
     1
102
RTVSPost2010Prop40
 90
        0
102
RTVSPost2010PropOp40
 70
     1
102
RTVSPost2010Prop41ColorIndex
 90
       18
102
RTVSPost2010Prop41ColorRGB
 90
        0
102
RTVSPost2010PropOp41
 70
     1
102
RTVSPost2010Prop42
 90
       50
102
RTVSPost2010PropOp42
 70
     1
102
RTVSPost2010Prop43
 90
        3
102
RTVSPost2010PropOp43
 70
     1
102
RTVSPost2010Prop44ColorIndex
 90
        5
102
RTVSPost2010Prop44ColorRGB
 90
      255
102
RTVSPost2010PropOp44
 70
     1
102
RTVSPost2010Prop45
280
     0
102
RTVSPost2010PropOp45
 70
     1
102
RTVSPost2010Prop46
 90
       50
102
RTVSPost2010PropOp46
 70
     1
102
RTVSPost2010Prop47
 90
       50
102
RTVSPost2010PropOp47
 70
     1
102
RTVSPost2010Prop48
 90
       50
102
RTVSPost2010PropOp48
 70
     1
102
RTVSPost2010Prop49
280
     0
102
RTVSPost2010PropOp49
 70
     1
102
RTVSPost2010Prop50
 90
       50
102
RTVSPost2010PropOp50
 70
     1
102
RTVSPost2010Prop51ColorIndex
 90
      256
102
RTVSPost2010Prop51ColorRGB
 90
-16777216
102
RTVSPost2010PropOp51
 70
     0
102
RTVSPost2010Prop52
140
1.0
102
RTVSPost2010PropOp52
 70
     0
102
RTVSPost2010Prop53
 90
        2
102
RTVSPost2010PropOp53
 70
     1
102
RTVSPost2010Prop54
  1
strokes_ogs.tif
102
RTVSPost2010PropOp54
 70
     1
102
RTVSPost2010Prop55
280
     0
102
RTVSPost2010PropOp55
 70
     1
102
RTVSPost2010Prop56
140
1.0
102
RTVSPost2010PropOp56
 70
     1
102
RTVSPost2010Prop57
140
1.0
102
RTVSPost2010PropOp57
 70
     1
102
RTVSPropertyOp33
 70
     1
102
RTVSPropertyOp34
 70
     1
102
RTVSPropertyOp35
 70
     1
102
RTVSPropertyOp36
 70
     1
102
RTVSPropertyOp37
 70
     1
102
RTVSPropertyOp38
 70
     1
102
RTVSPropertyOp39
 70
     1
102
RTVSPropertyOp40
 70
     1
102
RTVSPropertyOp41
 70
     1
102
RTVSPropertyOp42
 70
     1
102
RTVSPropertyOp43
 70
     1
102
RTVSPropertyOp44
 70
     1
102
RTVSPropertyOp45
 70
     1
102
RTVSPropertyOp46
 70
     1
102
RTVSPropertyOp47
 70
     1
102
RTVSPropertyOp48
 70
     1
102
RTVSPropertyOp49
 70
     1
102
RTVSPropertyOp50
 70
     1
102
RTVSPropertyOp51
 70
     0
102
RTVSPropertyOp52
 70
     0
102
RTVSPropertyOp53
 70
     1
102
RTVSPropertyOp54
 70
     1
102
RTVSPropertyOp55
 70
     1
102
RTVSPropertyOp56
 70
     1
102
RTVSPropertyOp57
 70
     1
102
RTVSPropertyOp58
 70
     1
102
RTVSPropertyOp59
 70
     1
102
RTVSPropertyOp60
 70
     1
102
RTVSPropertyOp61
 70
     1
102
RTVSPropertyOp62
 70
     1
102
RTVSPropertyOp0
 70
     1
102
RTVSPropertyOp1
 70
     1
102
RTVSPropertyOp2
 70
     1
102
RTVSPropertyOp3
 70
     1
102
RTVSPropertyOp4
 70
     1
102
RTVSPropertyOp5
 70
     1
102
RTVSPropertyOp6
 70
     1
102
RTVSPropertyOp7
 70
     1
102
RTVSPropertyOp8
 70
     1
102
RTVSPropertyOp9
 70
     1
102
RTVSPropertyOp10
 70
     1
102
RTVSPropertyOp11
 70
     1
102
RTVSPropertyOp12
 70
     1
102
RTVSPropertyOp13
 70
     1
102
RTVSPropertyOp14
 70
     1
102
RTVSPropertyOp15
 70
     1
102
RTVSPropertyOp16
 70
     1
102
RTVSPropertyOp17
 70
     1
102
RTVSPropertyOp18
 70
     1
102
RTVSPropertyOp19
 70
     1
102
RTVSPropertyOp20
 70
     1
102
RTVSPropertyOp21
 70
     1
102
RTVSPropertyOp22
 70
     1
102
RTVSPropertyOp23
 70
     1
102
RTVSPropertyOp24
 70
     1
102
RTVSPropertyOp25
 70
     1
102
RTVSPropertyOp26
 70
     1
102
RTVSPropertyOp27
 70
     1
102
RTVSPropertyOp28
 70
     1
102
RTVSPropertyOp29
 70
     1
102
RTVSPropertyOp30
 70
     1
102
RTVSPropertyOp31
 70
     1
102
RTVSPropertyOp32
 70
     1
  0
XRECORD
  5
2460
102
{ACAD_REACTORS
330
245F
102
}
330
245F
100
AcDbXrecord
280
     1
102
RTVSPost2010Prop28
280
     0
102
RTVSPost2010PropOp28
 70
     1
102
RTVSPost2010Prop29
280
     1
102
RTVSPost2010PropOp29
 70
     1
102
RTVSPost2010Prop30
280
     1
102
RTVSPost2010PropOp30
 70
     1
102
RTVSPost2010Prop31
280
     0
102
RTVSPost2010PropOp31
 70
     1
102
RTVSPost2010Prop32
280
     0
102
RTVSPost2010PropOp32
 70
     1
102
RTVSPost2010Prop33
280
     0
102
RTVSPost2010PropOp33
 70
     1
102
RTVSPost2010Prop34
280
     0
102
RTVSPost2010PropOp34
 70
     1
102
RTVSPost2010Prop35
280
     0
102
RTVSPost2010PropOp35
 70
     1
102
RTVSPost2010Prop36
280
     0
102
RTVSPost2010PropOp36
 70
     1
102
RTVSPost2010Prop37
 90
       50
102
RTVSPost2010PropOp37
 70
     1
102
RTVSPost2010Prop38
140
0.0
102
RTVSPost2010PropOp38
 70
     1
102
RTVSPost2010Prop39
140
1.0
102
RTVSPost2010PropOp39
 70
     1
102
RTVSPost2010Prop40
 90
        0
102
RTVSPost2010PropOp40
 70
     1
102
RTVSPost2010Prop41ColorIndex
 90
       18
102
RTVSPost2010Prop41ColorRGB
 90
        0
102
RTVSPost2010PropOp41
 70
     1
102
RTVSPost2010Prop42
 90
       50
102
RTVSPost2010PropOp42
 70
     1
102
RTVSPost2010Prop43
 90
        3
102
RTVSPost2010PropOp43
 70
     1
102
RTVSPost2010Prop44ColorIndex
 90
        5
102
RTVSPost2010Prop44ColorRGB
 90
      255
102
RTVSPost2010PropOp44
 70
     1
102
RTVSPost2010Prop45
280
     0
102
RTVSPost2010PropOp45
 70
     1
102
RTVSPost2010Prop46
 90
       50
102
RTVSPost2010PropOp46
 70
     1
102
RTVSPost2010Prop47
 90
       50
102
RTVSPost2010PropOp47
 70
     1
102
RTVSPost2010Prop48
 90
       50
102
RTVSPost2010PropOp48
 70
     1
102
RTVSPost2010Prop49
280
     0
102
RTVSPost2010PropOp49
 70
     1
102
RTVSPost2010Prop50
 90
       50
102
RTVSPost2010PropOp50
 70
     1
102
RTVSPost2010Prop51ColorIndex
 90
      256
102
RTVSPost2010Prop51ColorRGB
 90
-16777216
102
RTVSPost2010PropOp51
 70
     0
102
RTVSPost2010Prop52
140
1.0
102
RTVSPost2010PropOp52
 70
     0
102
RTVSPost2010Prop53
 90
        2
102
RTVSPost2010PropOp53
 70
     1
102
RTVSPost2010Prop54
  1
strokes_ogs.tif
102
RTVSPost2010PropOp54
 70
     1
102
RTVSPost2010Prop55
280
     0
102
RTVSPost2010PropOp55
 70
     1
102
RTVSPost2010Prop56
140
1.0
102
RTVSPost2010PropOp56
 70
     1
102
RTVSPost2010Prop57
140
1.0
102
RTVSPost2010PropOp57
 70
     1
102
RTVSPropertyOp33
 70
     1
102
RTVSPropertyOp34
 70
     1
102
RTVSPropertyOp35
 70
     1
102
RTVSPropertyOp36
 70
     1
102
RTVSPropertyOp37
 70
     1
102
RTVSPropertyOp38
 70
     1
102
RTVSPropertyOp39
 70
     1
102
RTVSPropertyOp40
 70
     1
102
RTVSPropertyOp41
 70
     1
102
RTVSPropertyOp42
 70
     1
102
RTVSPropertyOp43
 70
     1
102
RTVSPropertyOp44
 70
     1
102
RTVSPropertyOp45
 70
     1
102
RTVSPropertyOp46
 70
     1
102
RTVSPropertyOp47
 70
     1
102
RTVSPropertyOp48
 70
     1
102
RTVSPropertyOp49
 70
     1
102
RTVSPropertyOp50
 70
     1
102
RTVSPropertyOp51
 70
     0
102
RTVSPropertyOp52
 70
     0
102
RTVSPropertyOp53
 70
     1
102
RTVSPropertyOp54
 70
     1
102
RTVSPropertyOp55
 70
     1
102
RTVSPropertyOp56
 70
     1
102
RTVSPropertyOp57
 70
     1
102
RTVSPropertyOp58
 70
     1
102
RTVSPropertyOp59
 70
     1
102
RTVSPropertyOp60
 70
     1
102
RTVSPropertyOp61
 70
     1
102
RTVSPropertyOp62
 70
     1
102
RTVSPropertyOp0
 70
     1
102
RTVSPropertyOp1
 70
     1
102
RTVSPropertyOp2
 70
     1
102
RTVSPropertyOp3
 70
     1
102
RTVSPropertyOp4
 70
     1
102
RTVSPropertyOp5
 70
     1
102
RTVSPropertyOp6
 70
     1
102
RTVSPropertyOp7
 70
     1
102
RTVSPropertyOp8
 70
     1
102
RTVSPropertyOp9
 70
     1
102
RTVSPropertyOp10
 70
     1
102
RTVSPropertyOp11
 70
     1
102
RTVSPropertyOp12
 70
     1
102
RTVSPropertyOp13
 70
     1
102
RTVSPropertyOp14
 70
     1
102
RTVSPropertyOp15
 70
     1
102
RTVSPropertyOp16
 70
     1
102
RTVSPropertyOp17
 70
     1
102
RTVSPropertyOp18
 70
     1
102
RTVSPropertyOp19
 70
     1
102
RTVSPropertyOp20
 70
     1
102
RTVSPropertyOp21
 70
     1
102
RTVSPropertyOp22
 70
     1
102
RTVSPropertyOp23
 70
     1
102
RTVSPropertyOp24
 70
     1
102
RTVSPropertyOp25
 70
     1
102
RTVSPropertyOp26
 70
     1
102
RTVSPropertyOp27
 70
     1
102
RTVSPropertyOp28
 70
     1
102
RTVSPropertyOp29
 70
     1
102
RTVSPropertyOp30
 70
     1
102
RTVSPropertyOp31
 70
     1
102
RTVSPropertyOp32
 70
     1
  0
XRECORD
  5
2464
102
{ACAD_REACTORS
330
2463
102
}
330
2463
100
AcDbXrecord
280
     1
102
RTVSPost2010Prop28
280
     0
102
RTVSPost2010PropOp28
 70
     1
102
RTVSPost2010Prop29
280
     1
102
RTVSPost2010PropOp29
 70
     1
102
RTVSPost2010Prop30
280
     1
102
RTVSPost2010PropOp30
 70
     1
102
RTVSPost2010Prop31
280
     0
102
RTVSPost2010PropOp31
 70
     1
102
RTVSPost2010Prop32
280
     0
102
RTVSPost2010PropOp32
 70
     1
102
RTVSPost2010Prop33
280
     0
102
RTVSPost2010PropOp33
 70
     1
102
RTVSPost2010Prop34
280
     0
102
RTVSPost2010PropOp34
 70
     1
102
RTVSPost2010Prop35
280
     0
102
RTVSPost2010PropOp35
 70
     1
102
RTVSPost2010Prop36
280
     0
102
RTVSPost2010PropOp36
 70
     1
102
RTVSPost2010Prop37
 90
       50
102
RTVSPost2010PropOp37
 70
     1
102
RTVSPost2010Prop38
140
0.0
102
RTVSPost2010PropOp38
 70
     1
102
RTVSPost2010Prop39
140
1.0
102
RTVSPost2010PropOp39
 70
     1
102
RTVSPost2010Prop40
 90
        0
102
RTVSPost2010PropOp40
 70
     1
102
RTVSPost2010Prop41ColorIndex
 90
       18
102
RTVSPost2010Prop41ColorRGB
 90
        0
102
RTVSPost2010PropOp41
 70
     1
102
RTVSPost2010Prop42
 90
       50
102
RTVSPost2010PropOp42
 70
     1
102
RTVSPost2010Prop43
 90
        3
102
RTVSPost2010PropOp43
 70
     1
102
RTVSPost2010Prop44ColorIndex
 90
        5
102
RTVSPost2010Prop44ColorRGB
 90
      255
102
RTVSPost2010PropOp44
 70
     1
102
RTVSPost2010Prop45
280
     0
102
RTVSPost2010PropOp45
 70
     1
102
RTVSPost2010Prop46
 90
       50
102
RTVSPost2010PropOp46
 70
     1
102
RTVSPost2010Prop47
 90
       50
102
RTVSPost2010PropOp47
 70
     1
102
RTVSPost2010Prop48
 90
       50
102
RTVSPost2010PropOp48
 70
     1
102
RTVSPost2010Prop49
280
     0
102
RTVSPost2010PropOp49
 70
     1
102
RTVSPost2010Prop50
 90
       50
102
RTVSPost2010PropOp50
 70
     1
102
RTVSPost2010Prop51ColorIndex
 90
      256
102
RTVSPost2010Prop51ColorRGB
 90
-16777216
102
RTVSPost2010PropOp51
 70
     0
102
RTVSPost2010Prop52
140
1.0
102
RTVSPost2010PropOp52
 70
     0
102
RTVSPost2010Prop53
 90
        2
102
RTVSPost2010PropOp53
 70
     1
102
RTVSPost2010Prop54
  1
strokes_ogs.tif
102
RTVSPost2010PropOp54
 70
     1
102
RTVSPost2010Prop55
280
     0
102
RTVSPost2010PropOp55
 70
     1
102
RTVSPost2010Prop56
140
1.0
102
RTVSPost2010PropOp56
 70
     1
102
RTVSPost2010Prop57
140
1.0
102
RTVSPost2010PropOp57
 70
     1
102
RTVSPropertyOp33
 70
     1
102
RTVSPropertyOp34
 70
     1
102
RTVSPropertyOp35
 70
     1
102
RTVSPropertyOp36
 70
     1
102
RTVSPropertyOp37
 70
     1
102
RTVSPropertyOp38
 70
     1
102
RTVSPropertyOp39
 70
     1
102
RTVSPropertyOp40
 70
     1
102
RTVSPropertyOp41
 70
     1
102
RTVSPropertyOp42
 70
     1
102
RTVSPropertyOp43
 70
     1
102
RTVSPropertyOp44
 70
     1
102
RTVSPropertyOp45
 70
     1
102
RTVSPropertyOp46
 70
     1
102
RTVSPropertyOp47
 70
     1
102
RTVSPropertyOp48
 70
     1
102
RTVSPropertyOp49
 70
     1
102
RTVSPropertyOp50
 70
     1
102
RTVSPropertyOp51
 70
     0
102
RTVSPropertyOp52
 70
     0
102
RTVSPropertyOp53
 70
     1
102
RTVSPropertyOp54
 70
     1
102
RTVSPropertyOp55
 70
     1
102
RTVSPropertyOp56
 70
     1
102
RTVSPropertyOp57
 70
     1
102
RTVSPropertyOp58
 70
     1
102
RTVSPropertyOp59
 70
     1
102
RTVSPropertyOp60
 70
     1
102
RTVSPropertyOp61
 70
     1
102
RTVSPropertyOp62
 70
     1
102
RTVSPropertyOp0
 70
     1
102
RTVSPropertyOp1
 70
     1
102
RTVSPropertyOp2
 70
     1
102
RTVSPropertyOp3
 70
     1
102
RTVSPropertyOp4
 70
     1
102
RTVSPropertyOp5
 70
     1
102
RTVSPropertyOp6
 70
     1
102
RTVSPropertyOp7
 70
     1
102
RTVSPropertyOp8
 70
     1
102
RTVSPropertyOp9
 70
     1
102
RTVSPropertyOp10
 70
     1
102
RTVSPropertyOp11
 70
     1
102
RTVSPropertyOp12
 70
     1
102
RTVSPropertyOp13
 70
     1
102
RTVSPropertyOp14
 70
     1
102
RTVSPropertyOp15
 70
     1
102
RTVSPropertyOp16
 70
     1
102
RTVSPropertyOp17
 70
     1
102
RTVSPropertyOp18
 70
     1
102
RTVSPropertyOp19
 70
     1
102
RTVSPropertyOp20
 70
     1
102
RTVSPropertyOp21
 70
     1
102
RTVSPropertyOp22
 70
     1
102
RTVSPropertyOp23
 70
     1
102
RTVSPropertyOp24
 70
     1
102
RTVSPropertyOp25
 70
     1
102
RTVSPropertyOp26
 70
     1
102
RTVSPropertyOp27
 70
     1
102
RTVSPropertyOp28
 70
     1
102
RTVSPropertyOp29
 70
     1
102
RTVSPropertyOp30
 70
     1
102
RTVSPropertyOp31
 70
     1
102
RTVSPropertyOp32
 70
     1
  0
XRECORD
  5
2475
102
{ACAD_REACTORS
330
2474
102
}
330
2474
100
AcDbXrecord
280
     1
102
RTVSPost2010Prop28
280
     0
102
RTVSPost2010PropOp28
 70
     1
102
RTVSPost2010Prop29
280
     1
102
RTVSPost2010PropOp29
 70
     1
102
RTVSPost2010Prop30
280
     1
102
RTVSPost2010PropOp30
 70
     1
102
RTVSPost2010Prop31
280
     0
102
RTVSPost2010PropOp31
 70
     1
102
RTVSPost2010Prop32
280
     0
102
RTVSPost2010PropOp32
 70
     1
102
RTVSPost2010Prop33
280
     0
102
RTVSPost2010PropOp33
 70
     1
102
RTVSPost2010Prop34
280
     0
102
RTVSPost2010PropOp34
 70
     1
102
RTVSPost2010Prop35
280
     0
102
RTVSPost2010PropOp35
 70
     1
102
RTVSPost2010Prop36
280
     0
102
RTVSPost2010PropOp36
 70
     1
102
RTVSPost2010Prop37
 90
       50
102
RTVSPost2010PropOp37
 70
     1
102
RTVSPost2010Prop38
140
0.0
102
RTVSPost2010PropOp38
 70
     1
102
RTVSPost2010Prop39
140
1.0
102
RTVSPost2010PropOp39
 70
     1
102
RTVSPost2010Prop40
 90
        0
102
RTVSPost2010PropOp40
 70
     1
102
RTVSPost2010Prop41ColorIndex
 90
       18
102
RTVSPost2010Prop41ColorRGB
 90
        0
102
RTVSPost2010PropOp41
 70
     1
102
RTVSPost2010Prop42
 90
       50
102
RTVSPost2010PropOp42
 70
     1
102
RTVSPost2010Prop43
 90
        3
102
RTVSPost2010PropOp43
 70
     1
102
RTVSPost2010Prop44ColorIndex
 90
        5
102
RTVSPost2010Prop44ColorRGB
 90
      255
102
RTVSPost2010PropOp44
 70
     1
102
RTVSPost2010Prop45
280
     0
102
RTVSPost2010PropOp45
 70
     1
102
RTVSPost2010Prop46
 90
       50
102
RTVSPost2010PropOp46
 70
     1
102
RTVSPost2010Prop47
 90
       50
102
RTVSPost2010PropOp47
 70
     1
102
RTVSPost2010Prop48
 90
       50
102
RTVSPost2010PropOp48
 70
     1
102
RTVSPost2010Prop49
280
     0
102
RTVSPost2010PropOp49
 70
     1
102
RTVSPost2010Prop50
 90
       50
102
RTVSPost2010PropOp50
 70
     1
102
RTVSPost2010Prop51ColorIndex
 90
      256
102
RTVSPost2010Prop51ColorRGB
 90
-16777216
102
RTVSPost2010PropOp51
 70
     0
102
RTVSPost2010Prop52
140
1.0
102
RTVSPost2010PropOp52
 70
     0
102
RTVSPost2010Prop53
 90
        2
102
RTVSPost2010PropOp53
 70
     1
102
RTVSPost2010Prop54
  1
strokes_ogs.tif
102
RTVSPost2010PropOp54
 70
     1
102
RTVSPost2010Prop55
280
     0
102
RTVSPost2010PropOp55
 70
     1
102
RTVSPost2010Prop56
140
1.0
102
RTVSPost2010PropOp56
 70
     1
102
RTVSPost2010Prop57
140
1.0
102
RTVSPost2010PropOp57
 70
     1
102
RTVSPropertyOp33
 70
     1
102
RTVSPropertyOp34
 70
     1
102
RTVSPropertyOp35
 70
     1
102
RTVSPropertyOp36
 70
     1
102
RTVSPropertyOp37
 70
     1
102
RTVSPropertyOp38
 70
     1
102
RTVSPropertyOp39
 70
     1
102
RTVSPropertyOp40
 70
     1
102
RTVSPropertyOp41
 70
     1
102
RTVSPropertyOp42
 70
     1
102
RTVSPropertyOp43
 70
     1
102
RTVSPropertyOp44
 70
     1
102
RTVSPropertyOp45
 70
     1
102
RTVSPropertyOp46
 70
     1
102
RTVSPropertyOp47
 70
     1
102
RTVSPropertyOp48
 70
     1
102
RTVSPropertyOp49
 70
     1
102
RTVSPropertyOp50
 70
     1
102
RTVSPropertyOp51
 70
     0
102
RTVSPropertyOp52
 70
     0
102
RTVSPropertyOp53
 70
     1
102
RTVSPropertyOp54
 70
     1
102
RTVSPropertyOp55
 70
     1
102
RTVSPropertyOp56
 70
     1
102
RTVSPropertyOp57
 70
     1
102
RTVSPropertyOp58
 70
     1
102
RTVSPropertyOp59
 70
     1
102
RTVSPropertyOp60
 70
     1
102
RTVSPropertyOp61
 70
     1
102
RTVSPropertyOp62
 70
     1
102
RTVSPropertyOp0
 70
     0
102
RTVSPropertyOp1
 70
     0
102
RTVSPropertyOp2
 70
     0
102
RTVSPropertyOp3
 70
     0
102
RTVSPropertyOp4
 70
     0
102
RTVSPropertyOp5
 70
     0
102
RTVSPropertyOp6
 70
     0
102
RTVSPropertyOp7
 70
     0
102
RTVSPropertyOp8
 70
     0
102
RTVSPropertyOp9
 70
     0
102
RTVSPropertyOp10
 70
     0
102
RTVSPropertyOp11
 70
     0
102
RTVSPropertyOp12
 70
     0
102
RTVSPropertyOp13
 70
     0
102
RTVSPropertyOp14
 70
     2
102
RTVSPropertyOp15
 70
     0
102
RTVSPropertyOp16
 70
     0
102
RTVSPropertyOp17
 70
     0
102
RTVSPropertyOp18
 70
     0
102
RTVSPropertyOp19
 70
     0
102
RTVSPropertyOp20
 70
     0
102
RTVSPropertyOp21
 70
     0
102
RTVSPropertyOp22
 70
     0
102
RTVSPropertyOp23
 70
     0
102
RTVSPropertyOp24
 70
     0
102
RTVSPropertyOp25
 70
     0
102
RTVSPropertyOp26
 70
     0
102
RTVSPropertyOp27
 70
     0
102
RTVSPropertyOp28
 70
     1
102
RTVSPropertyOp29
 70
     1
102
RTVSPropertyOp30
 70
     1
102
RTVSPropertyOp31
 70
     1
102
RTVSPropertyOp32
 70
     1
  0
XRECORD
  5
246C
102
{ACAD_REACTORS
330
246B
102
}
330
246B
100
AcDbXrecord
280
     1
102
RTVSPost2010Prop28
280
     0
102
RTVSPost2010PropOp28
 70
     1
102
RTVSPost2010Prop29
280
     1
102
RTVSPost2010PropOp29
 70
     1
102
RTVSPost2010Prop30
280
     1
102
RTVSPost2010PropOp30
 70
     1
102
RTVSPost2010Prop31
280
     0
102
RTVSPost2010PropOp31
 70
     1
102
RTVSPost2010Prop32
280
     0
102
RTVSPost2010PropOp32
 70
     1
102
RTVSPost2010Prop33
280
     0
102
RTVSPost2010PropOp33
 70
     1
102
RTVSPost2010Prop34
280
     0
102
RTVSPost2010PropOp34
 70
     1
102
RTVSPost2010Prop35
280
     0
102
RTVSPost2010PropOp35
 70
     1
102
RTVSPost2010Prop36
280
     0
102
RTVSPost2010PropOp36
 70
     1
102
RTVSPost2010Prop37
 90
       50
102
RTVSPost2010PropOp37
 70
     1
102
RTVSPost2010Prop38
140
0.0
102
RTVSPost2010PropOp38
 70
     1
102
RTVSPost2010Prop39
140
1.0
102
RTVSPost2010PropOp39
 70
     1
102
RTVSPost2010Prop40
 90
        0
102
RTVSPost2010PropOp40
 70
     1
102
RTVSPost2010Prop41ColorIndex
 90
       18
102
RTVSPost2010Prop41ColorRGB
 90
        0
102
RTVSPost2010PropOp41
 70
     1
102
RTVSPost2010Prop42
 90
       50
102
RTVSPost2010PropOp42
 70
     1
102
RTVSPost2010Prop43
 90
        3
102
RTVSPost2010PropOp43
 70
     1
102
RTVSPost2010Prop44ColorIndex
 90
        5
102
RTVSPost2010Prop44ColorRGB
 90
      255
102
RTVSPost2010PropOp44
 70
     1
102
RTVSPost2010Prop45
280
     0
102
RTVSPost2010PropOp45
 70
     1
102
RTVSPost2010Prop46
 90
       50
102
RTVSPost2010PropOp46
 70
     1
102
RTVSPost2010Prop47
 90
       50
102
RTVSPost2010PropOp47
 70
     1
102
RTVSPost2010Prop48
 90
       50
102
RTVSPost2010PropOp48
 70
     1
102
RTVSPost2010Prop49
280
     0
102
RTVSPost2010PropOp49
 70
     1
102
RTVSPost2010Prop50
 90
       50
102
RTVSPost2010PropOp50
 70
     1
102
RTVSPost2010Prop51ColorIndex
 90
      256
102
RTVSPost2010Prop51ColorRGB
 90
-16777216
102
RTVSPost2010PropOp51
 70
     0
102
RTVSPost2010Prop52
140
1.0
102
RTVSPost2010PropOp52
 70
     0
102
RTVSPost2010Prop53
 90
        2
102
RTVSPost2010PropOp53
 70
     1
102
RTVSPost2010Prop54
  1
strokes_ogs.tif
102
RTVSPost2010PropOp54
 70
     1
102
RTVSPost2010Prop55
280
     0
102
RTVSPost2010PropOp55
 70
     1
102
RTVSPost2010Prop56
140
1.0
102
RTVSPost2010PropOp56
 70
     1
102
RTVSPost2010Prop57
140
1.0
102
RTVSPost2010PropOp57
 70
     1
102
RTVSPropertyOp33
 70
     1
102
RTVSPropertyOp34
 70
     1
102
RTVSPropertyOp35
 70
     1
102
RTVSPropertyOp36
 70
     1
102
RTVSPropertyOp37
 70
     1
102
RTVSPropertyOp38
 70
     1
102
RTVSPropertyOp39
 70
     1
102
RTVSPropertyOp40
 70
     1
102
RTVSPropertyOp41
 70
     1
102
RTVSPropertyOp42
 70
     1
102
RTVSPropertyOp43
 70
     1
102
RTVSPropertyOp44
 70
     1
102
RTVSPropertyOp45
 70
     1
102
RTVSPropertyOp46
 70
     1
102
RTVSPropertyOp47
 70
     1
102
RTVSPropertyOp48
 70
     1
102
RTVSPropertyOp49
 70
     1
102
RTVSPropertyOp50
 70
     1
102
RTVSPropertyOp51
 70
     0
102
RTVSPropertyOp52
 70
     0
102
RTVSPropertyOp53
 70
     1
102
RTVSPropertyOp54
 70
     1
102
RTVSPropertyOp55
 70
     1
102
RTVSPropertyOp56
 70
     1
102
RTVSPropertyOp57
 70
     1
102
RTVSPropertyOp58
 70
     1
102
RTVSPropertyOp59
 70
     1
102
RTVSPropertyOp60
 70
     1
102
RTVSPropertyOp61
 70
     1
102
RTVSPropertyOp62
 70
     1
102
RTVSPropertyOp0
 70
     1
102
RTVSPropertyOp1
 70
     1
102
RTVSPropertyOp2
 70
     1
102
RTVSPropertyOp3
 70
     1
102
RTVSPropertyOp4
 70
     1
102
RTVSPropertyOp5
 70
     1
102
RTVSPropertyOp6
 70
     1
102
RTVSPropertyOp7
 70
     1
102
RTVSPropertyOp8
 70
     1
102
RTVSPropertyOp9
 70
     1
102
RTVSPropertyOp10
 70
     1
102
RTVSPropertyOp11
 70
     1
102
RTVSPropertyOp12
 70
     1
102
RTVSPropertyOp13
 70
     1
102
RTVSPropertyOp14
 70
     1
102
RTVSPropertyOp15
 70
     1
102
RTVSPropertyOp16
 70
     1
102
RTVSPropertyOp17
 70
     1
102
RTVSPropertyOp18
 70
     1
102
RTVSPropertyOp19
 70
     1
102
RTVSPropertyOp20
 70
     1
102
RTVSPropertyOp21
 70
     1
102
RTVSPropertyOp22
 70
     1
102
RTVSPropertyOp23
 70
     1
102
RTVSPropertyOp24
 70
     1
102
RTVSPropertyOp25
 70
     1
102
RTVSPropertyOp26
 70
     1
102
RTVSPropertyOp27
 70
     1
102
RTVSPropertyOp28
 70
     1
102
RTVSPropertyOp29
 70
     1
102
RTVSPropertyOp30
 70
     1
102
RTVSPropertyOp31
 70
     1
102
RTVSPropertyOp32
 70
     1
  0
XRECORD
  5
2450
102
{ACAD_REACTORS
330
244F
102
}
330
244F
100
AcDbXrecord
280
     1
102
RTVSPost2010Prop28
280
     0
102
RTVSPost2010PropOp28
 70
     1
102
RTVSPost2010Prop29
280
     1
102
RTVSPost2010PropOp29
 70
     1
102
RTVSPost2010Prop30
280
     1
102
RTVSPost2010PropOp30
 70
     1
102
RTVSPost2010Prop31
280
     0
102
RTVSPost2010PropOp31
 70
     1
102
RTVSPost2010Prop32
280
     0
102
RTVSPost2010PropOp32
 70
     1
102
RTVSPost2010Prop33
280
     0
102
RTVSPost2010PropOp33
 70
     1
102
RTVSPost2010Prop34
280
     0
102
RTVSPost2010PropOp34
 70
     1
102
RTVSPost2010Prop35
280
     0
102
RTVSPost2010PropOp35
 70
     1
102
RTVSPost2010Prop36
280
     0
102
RTVSPost2010PropOp36
 70
     1
102
RTVSPost2010Prop37
 90
       50
102
RTVSPost2010PropOp37
 70
     1
102
RTVSPost2010Prop38
140
0.0
102
RTVSPost2010PropOp38
 70
     1
102
RTVSPost2010Prop39
140
1.0
102
RTVSPost2010PropOp39
 70
     1
102
RTVSPost2010Prop40
 90
        0
102
RTVSPost2010PropOp40
 70
     1
102
RTVSPost2010Prop41ColorIndex
 90
       18
102
RTVSPost2010Prop41ColorRGB
 90
        0
102
RTVSPost2010PropOp41
 70
     1
102
RTVSPost2010Prop42
 90
       50
102
RTVSPost2010PropOp42
 70
     1
102
RTVSPost2010Prop43
 90
        3
102
RTVSPost2010PropOp43
 70
     1
102
RTVSPost2010Prop44ColorIndex
 90
        5
102
RTVSPost2010Prop44ColorRGB
 90
      255
102
RTVSPost2010PropOp44
 70
     1
102
RTVSPost2010Prop45
280
     0
102
RTVSPost2010PropOp45
 70
     1
102
RTVSPost2010Prop46
 90
       50
102
RTVSPost2010PropOp46
 70
     1
102
RTVSPost2010Prop47
 90
       50
102
RTVSPost2010PropOp47
 70
     1
102
RTVSPost2010Prop48
 90
       50
102
RTVSPost2010PropOp48
 70
     1
102
RTVSPost2010Prop49
280
     0
102
RTVSPost2010PropOp49
 70
     1
102
RTVSPost2010Prop50
 90
       50
102
RTVSPost2010PropOp50
 70
     1
102
RTVSPost2010Prop51ColorIndex
 90
      256
102
RTVSPost2010Prop51ColorRGB
 90
-16777216
102
RTVSPost2010PropOp51
 70
     0
102
RTVSPost2010Prop52
140
1.0
102
RTVSPost2010PropOp52
 70
     0
102
RTVSPost2010Prop53
 90
        2
102
RTVSPost2010PropOp53
 70
     1
102
RTVSPost2010Prop54
  1
strokes_ogs.tif
102
RTVSPost2010PropOp54
 70
     1
102
RTVSPost2010Prop55
280
     0
102
RTVSPost2010PropOp55
 70
     1
102
RTVSPost2010Prop56
140
1.0
102
RTVSPost2010PropOp56
 70
     1
102
RTVSPost2010Prop57
140
1.0
102
RTVSPost2010PropOp57
 70
     1
102
RTVSPropertyOp33
 70
     1
102
RTVSPropertyOp34
 70
     1
102
RTVSPropertyOp35
 70
     1
102
RTVSPropertyOp36
 70
     1
102
RTVSPropertyOp37
 70
     1
102
RTVSPropertyOp38
 70
     1
102
RTVSPropertyOp39
 70
     1
102
RTVSPropertyOp40
 70
     1
102
RTVSPropertyOp41
 70
     1
102
RTVSPropertyOp42
 70
     1
102
RTVSPropertyOp43
 70
     1
102
RTVSPropertyOp44
 70
     1
102
RTVSPropertyOp45
 70
     1
102
RTVSPropertyOp46
 70
     1
102
RTVSPropertyOp47
 70
     1
102
RTVSPropertyOp48
 70
     1
102
RTVSPropertyOp49
 70
     1
102
RTVSPropertyOp50
 70
     1
102
RTVSPropertyOp51
 70
     0
102
RTVSPropertyOp52
 70
     0
102
RTVSPropertyOp53
 70
     1
102
RTVSPropertyOp54
 70
     1
102
RTVSPropertyOp55
 70
     1
102
RTVSPropertyOp56
 70
     1
102
RTVSPropertyOp57
 70
     1
102
RTVSPropertyOp58
 70
     1
102
RTVSPropertyOp59
 70
     1
102
RTVSPropertyOp60
 70
     1
102
RTVSPropertyOp61
 70
     1
102
RTVSPropertyOp62
 70
     1
102
RTVSPropertyOp0
 70
     1
102
RTVSPropertyOp1
 70
     1
102
RTVSPropertyOp2
 70
     1
102
RTVSPropertyOp3
 70
     1
102
RTVSPropertyOp4
 70
     1
102
RTVSPropertyOp5
 70
     1
102
RTVSPropertyOp6
 70
     1
102
RTVSPropertyOp7
 70
     1
102
RTVSPropertyOp8
 70
     1
102
RTVSPropertyOp9
 70
     1
102
RTVSPropertyOp10
 70
     1
102
RTVSPropertyOp11
 70
     1
102
RTVSPropertyOp12
 70
     1
102
RTVSPropertyOp13
 70
     1
102
RTVSPropertyOp14
 70
     1
102
RTVSPropertyOp15
 70
     1
102
RTVSPropertyOp16
 70
     1
102
RTVSPropertyOp17
 70
     1
102
RTVSPropertyOp18
 70
     1
102
RTVSPropertyOp19
 70
     1
102
RTVSPropertyOp20
 70
     1
102
RTVSPropertyOp21
 70
     1
102
RTVSPropertyOp22
 70
     1
102
RTVSPropertyOp23
 70
     1
102
RTVSPropertyOp24
 70
     1
102
RTVSPropertyOp25
 70
     1
102
RTVSPropertyOp26
 70
     1
102
RTVSPropertyOp27
 70
     1
102
RTVSPropertyOp28
 70
     1
102
RTVSPropertyOp29
 70
     1
102
RTVSPropertyOp30
 70
     1
102
RTVSPropertyOp31
 70
     1
102
RTVSPropertyOp32
 70
     1
  0
XRECORD
  5
2452
102
{ACAD_REACTORS
330
2451
102
}
330
2451
100
AcDbXrecord
280
     1
102
RTVSPost2010Prop28
280
     0
102
RTVSPost2010PropOp28
 70
     1
102
RTVSPost2010Prop29
280
     1
102
RTVSPost2010PropOp29
 70
     1
102
RTVSPost2010Prop30
280
     1
102
RTVSPost2010PropOp30
 70
     1
102
RTVSPost2010Prop31
280
     0
102
RTVSPost2010PropOp31
 70
     1
102
RTVSPost2010Prop32
280
     0
102
RTVSPost2010PropOp32
 70
     1
102
RTVSPost2010Prop33
280
     0
102
RTVSPost2010PropOp33
 70
     1
102
RTVSPost2010Prop34
280
     0
102
RTVSPost2010PropOp34
 70
     1
102
RTVSPost2010Prop35
280
     0
102
RTVSPost2010PropOp35
 70
     1
102
RTVSPost2010Prop36
280
     0
102
RTVSPost2010PropOp36
 70
     1
102
RTVSPost2010Prop37
 90
       50
102
RTVSPost2010PropOp37
 70
     1
102
RTVSPost2010Prop38
140
0.0
102
RTVSPost2010PropOp38
 70
     1
102
RTVSPost2010Prop39
140
1.0
102
RTVSPost2010PropOp39
 70
     1
102
RTVSPost2010Prop40
 90
        0
102
RTVSPost2010PropOp40
 70
     1
102
RTVSPost2010Prop41ColorIndex
 90
       18
102
RTVSPost2010Prop41ColorRGB
 90
        0
102
RTVSPost2010PropOp41
 70
     1
102
RTVSPost2010Prop42
 90
       50
102
RTVSPost2010PropOp42
 70
     1
102
RTVSPost2010Prop43
 90
        3
102
RTVSPost2010PropOp43
 70
     1
102
RTVSPost2010Prop44ColorIndex
 90
        5
102
RTVSPost2010Prop44ColorRGB
 90
      255
102
RTVSPost2010PropOp44
 70
     1
102
RTVSPost2010Prop45
280
     0
102
RTVSPost2010PropOp45
 70
     1
102
RTVSPost2010Prop46
 90
       50
102
RTVSPost2010PropOp46
 70
     1
102
RTVSPost2010Prop47
 90
       50
102
RTVSPost2010PropOp47
 70
     1
102
RTVSPost2010Prop48
 90
       50
102
RTVSPost2010PropOp48
 70
     1
102
RTVSPost2010Prop49
280
     0
102
RTVSPost2010PropOp49
 70
     1
102
RTVSPost2010Prop50
 90
       50
102
RTVSPost2010PropOp50
 70
     1
102
RTVSPost2010Prop51ColorIndex
 90
      256
102
RTVSPost2010Prop51ColorRGB
 90
-16777216
102
RTVSPost2010PropOp51
 70
     0
102
RTVSPost2010Prop52
140
1.0
102
RTVSPost2010PropOp52
 70
     0
102
RTVSPost2010Prop53
 90
        2
102
RTVSPost2010PropOp53
 70
     1
102
RTVSPost2010Prop54
  1
strokes_ogs.tif
102
RTVSPost2010PropOp54
 70
     1
102
RTVSPost2010Prop55
280
     0
102
RTVSPost2010PropOp55
 70
     1
102
RTVSPost2010Prop56
140
1.0
102
RTVSPost2010PropOp56
 70
     1
102
RTVSPost2010Prop57
140
1.0
102
RTVSPost2010PropOp57
 70
     1
102
RTVSPropertyOp33
 70
     1
102
RTVSPropertyOp34
 70
     1
102
RTVSPropertyOp35
 70
     1
102
RTVSPropertyOp36
 70
     1
102
RTVSPropertyOp37
 70
     1
102
RTVSPropertyOp38
 70
     1
102
RTVSPropertyOp39
 70
     1
102
RTVSPropertyOp40
 70
     1
102
RTVSPropertyOp41
 70
     1
102
RTVSPropertyOp42
 70
     1
102
RTVSPropertyOp43
 70
     1
102
RTVSPropertyOp44
 70
     1
102
RTVSPropertyOp45
 70
     1
102
RTVSPropertyOp46
 70
     1
102
RTVSPropertyOp47
 70
     1
102
RTVSPropertyOp48
 70
     1
102
RTVSPropertyOp49
 70
     1
102
RTVSPropertyOp50
 70
     1
102
RTVSPropertyOp51
 70
     0
102
RTVSPropertyOp52
 70
     0
102
RTVSPropertyOp53
 70
     1
102
RTVSPropertyOp54
 70
     1
102
RTVSPropertyOp55
 70
     1
102
RTVSPropertyOp56
 70
     1
102
RTVSPropertyOp57
 70
     1
102
RTVSPropertyOp58
 70
     1
102
RTVSPropertyOp59
 70
     1
102
RTVSPropertyOp60
 70
     1
102
RTVSPropertyOp61
 70
     1
102
RTVSPropertyOp62
 70
     1
102
RTVSPropertyOp0
 70
     1
102
RTVSPropertyOp1
 70
     1
102
RTVSPropertyOp2
 70
     1
102
RTVSPropertyOp3
 70
     1
102
RTVSPropertyOp4
 70
     1
102
RTVSPropertyOp5
 70
     1
102
RTVSPropertyOp6
 70
     1
102
RTVSPropertyOp7
 70
     1
102
RTVSPropertyOp8
 70
     1
102
RTVSPropertyOp9
 70
     1
102
RTVSPropertyOp10
 70
     1
102
RTVSPropertyOp11
 70
     1
102
RTVSPropertyOp12
 70
     1
102
RTVSPropertyOp13
 70
     1
102
RTVSPropertyOp14
 70
     1
102
RTVSPropertyOp15
 70
     1
102
RTVSPropertyOp16
 70
     1
102
RTVSPropertyOp17
 70
     1
102
RTVSPropertyOp18
 70
     1
102
RTVSPropertyOp19
 70
     1
102
RTVSPropertyOp20
 70
     1
102
RTVSPropertyOp21
 70
     1
102
RTVSPropertyOp22
 70
     1
102
RTVSPropertyOp23
 70
     1
102
RTVSPropertyOp24
 70
     1
102
RTVSPropertyOp25
 70
     1
102
RTVSPropertyOp26
 70
     1
102
RTVSPropertyOp27
 70
     1
102
RTVSPropertyOp28
 70
     1
102
RTVSPropertyOp29
 70
     1
102
RTVSPropertyOp30
 70
     1
102
RTVSPropertyOp31
 70
     1
102
RTVSPropertyOp32
 70
     1
  0
XRECORD
  5
2454
102
{ACAD_REACTORS
330
2453
102
}
330
2453
100
AcDbXrecord
280
     1
102
RTVSPost2010Prop28
280
     0
102
RTVSPost2010PropOp28
 70
     1
102
RTVSPost2010Prop29
280
     1
102
RTVSPost2010PropOp29
 70
     1
102
RTVSPost2010Prop30
280
     1
102
RTVSPost2010PropOp30
 70
     1
102
RTVSPost2010Prop31
280
     0
102
RTVSPost2010PropOp31
 70
     1
102
RTVSPost2010Prop32
280
     0
102
RTVSPost2010PropOp32
 70
     1
102
RTVSPost2010Prop33
280
     0
102
RTVSPost2010PropOp33
 70
     1
102
RTVSPost2010Prop34
280
     0
102
RTVSPost2010PropOp34
 70
     1
102
RTVSPost2010Prop35
280
     0
102
RTVSPost2010PropOp35
 70
     1
102
RTVSPost2010Prop36
280
     0
102
RTVSPost2010PropOp36
 70
     1
102
RTVSPost2010Prop37
 90
       50
102
RTVSPost2010PropOp37
 70
     1
102
RTVSPost2010Prop38
140
0.0
102
RTVSPost2010PropOp38
 70
     1
102
RTVSPost2010Prop39
140
1.0
102
RTVSPost2010PropOp39
 70
     1
102
RTVSPost2010Prop40
 90
        0
102
RTVSPost2010PropOp40
 70
     1
102
RTVSPost2010Prop41ColorIndex
 90
       18
102
RTVSPost2010Prop41ColorRGB
 90
        0
102
RTVSPost2010PropOp41
 70
     1
102
RTVSPost2010Prop42
 90
       50
102
RTVSPost2010PropOp42
 70
     1
102
RTVSPost2010Prop43
 90
        3
102
RTVSPost2010PropOp43
 70
     1
102
RTVSPost2010Prop44ColorIndex
 90
        5
102
RTVSPost2010Prop44ColorRGB
 90
      255
102
RTVSPost2010PropOp44
 70
     1
102
RTVSPost2010Prop45
280
     0
102
RTVSPost2010PropOp45
 70
     1
102
RTVSPost2010Prop46
 90
       50
102
RTVSPost2010PropOp46
 70
     1
102
RTVSPost2010Prop47
 90
       50
102
RTVSPost2010PropOp47
 70
     1
102
RTVSPost2010Prop48
 90
       50
102
RTVSPost2010PropOp48
 70
     1
102
RTVSPost2010Prop49
280
     0
102
RTVSPost2010PropOp49
 70
     1
102
RTVSPost2010Prop50
 90
       50
102
RTVSPost2010PropOp50
 70
     1
102
RTVSPost2010Prop51ColorIndex
 90
      256
102
RTVSPost2010Prop51ColorRGB
 90
-16777216
102
RTVSPost2010PropOp51
 70
     0
102
RTVSPost2010Prop52
140
1.0
102
RTVSPost2010PropOp52
 70
     0
102
RTVSPost2010Prop53
 90
        2
102
RTVSPost2010PropOp53
 70
     1
102
RTVSPost2010Prop54
  1
strokes_ogs.tif
102
RTVSPost2010PropOp54
 70
     1
102
RTVSPost2010Prop55
280
     0
102
RTVSPost2010PropOp55
 70
     1
102
RTVSPost2010Prop56
140
1.0
102
RTVSPost2010PropOp56
 70
     1
102
RTVSPost2010Prop57
140
1.0
102
RTVSPost2010PropOp57
 70
     1
102
RTVSPropertyOp33
 70
     1
102
RTVSPropertyOp34
 70
     1
102
RTVSPropertyOp35
 70
     1
102
RTVSPropertyOp36
 70
     1
102
RTVSPropertyOp37
 70
     1
102
RTVSPropertyOp38
 70
     1
102
RTVSPropertyOp39
 70
     1
102
RTVSPropertyOp40
 70
     1
102
RTVSPropertyOp41
 70
     1
102
RTVSPropertyOp42
 70
     1
102
RTVSPropertyOp43
 70
     1
102
RTVSPropertyOp44
 70
     1
102
RTVSPropertyOp45
 70
     1
102
RTVSPropertyOp46
 70
     1
102
RTVSPropertyOp47
 70
     1
102
RTVSPropertyOp48
 70
     1
102
RTVSPropertyOp49
 70
     1
102
RTVSPropertyOp50
 70
     1
102
RTVSPropertyOp51
 70
     0
102
RTVSPropertyOp52
 70
     0
102
RTVSPropertyOp53
 70
     1
102
RTVSPropertyOp54
 70
     1
102
RTVSPropertyOp55
 70
     1
102
RTVSPropertyOp56
 70
     1
102
RTVSPropertyOp57
 70
     1
102
RTVSPropertyOp58
 70
     1
102
RTVSPropertyOp59
 70
     1
102
RTVSPropertyOp60
 70
     1
102
RTVSPropertyOp61
 70
     1
102
RTVSPropertyOp62
 70
     1
102
RTVSPropertyOp0
 70
     1
102
RTVSPropertyOp1
 70
     1
102
RTVSPropertyOp2
 70
     1
102
RTVSPropertyOp3
 70
     1
102
RTVSPropertyOp4
 70
     1
102
RTVSPropertyOp5
 70
     1
102
RTVSPropertyOp6
 70
     1
102
RTVSPropertyOp7
 70
     1
102
RTVSPropertyOp8
 70
     1
102
RTVSPropertyOp9
 70
     1
102
RTVSPropertyOp10
 70
     1
102
RTVSPropertyOp11
 70
     1
102
RTVSPropertyOp12
 70
     1
102
RTVSPropertyOp13
 70
     1
102
RTVSPropertyOp14
 70
     1
102
RTVSPropertyOp15
 70
     1
102
RTVSPropertyOp16
 70
     1
102
RTVSPropertyOp17
 70
     1
102
RTVSPropertyOp18
 70
     1
102
RTVSPropertyOp19
 70
     1
102
RTVSPropertyOp20
 70
     1
102
RTVSPropertyOp21
 70
     1
102
RTVSPropertyOp22
 70
     1
102
RTVSPropertyOp23
 70
     1
102
RTVSPropertyOp24
 70
     1
102
RTVSPropertyOp25
 70
     1
102
RTVSPropertyOp26
 70
     1
102
RTVSPropertyOp27
 70
     1
102
RTVSPropertyOp28
 70
     1
102
RTVSPropertyOp29
 70
     1
102
RTVSPropertyOp30
 70
     1
102
RTVSPropertyOp31
 70
     1
102
RTVSPropertyOp32
 70
     1
  0
XRECORD
  5
2456
102
{ACAD_REACTORS
330
2455
102
}
330
2455
100
AcDbXrecord
280
     1
102
RTVSPost2010Prop28
280
     0
102
RTVSPost2010PropOp28
 70
     1
102
RTVSPost2010Prop29
280
     1
102
RTVSPost2010PropOp29
 70
     1
102
RTVSPost2010Prop30
280
     1
102
RTVSPost2010PropOp30
 70
     1
102
RTVSPost2010Prop31
280
     0
102
RTVSPost2010PropOp31
 70
     1
102
RTVSPost2010Prop32
280
     0
102
RTVSPost2010PropOp32
 70
     1
102
RTVSPost2010Prop33
280
     0
102
RTVSPost2010PropOp33
 70
     1
102
RTVSPost2010Prop34
280
     0
102
RTVSPost2010PropOp34
 70
     1
102
RTVSPost2010Prop35
280
     0
102
RTVSPost2010PropOp35
 70
     1
102
RTVSPost2010Prop36
280
     0
102
RTVSPost2010PropOp36
 70
     1
102
RTVSPost2010Prop37
 90
       50
102
RTVSPost2010PropOp37
 70
     1
102
RTVSPost2010Prop38
140
0.0
102
RTVSPost2010PropOp38
 70
     1
102
RTVSPost2010Prop39
140
1.0
102
RTVSPost2010PropOp39
 70
     1
102
RTVSPost2010Prop40
 90
        0
102
RTVSPost2010PropOp40
 70
     1
102
RTVSPost2010Prop41ColorIndex
 90
       18
102
RTVSPost2010Prop41ColorRGB
 90
        0
102
RTVSPost2010PropOp41
 70
     1
102
RTVSPost2010Prop42
 90
       50
102
RTVSPost2010PropOp42
 70
     1
102
RTVSPost2010Prop43
 90
        3
102
RTVSPost2010PropOp43
 70
     1
102
RTVSPost2010Prop44ColorIndex
 90
        5
102
RTVSPost2010Prop44ColorRGB
 90
      255
102
RTVSPost2010PropOp44
 70
     1
102
RTVSPost2010Prop45
280
     0
102
RTVSPost2010PropOp45
 70
     1
102
RTVSPost2010Prop46
 90
       50
102
RTVSPost2010PropOp46
 70
     1
102
RTVSPost2010Prop47
 90
       50
102
RTVSPost2010PropOp47
 70
     1
102
RTVSPost2010Prop48
 90
       50
102
RTVSPost2010PropOp48
 70
     1
102
RTVSPost2010Prop49
280
     0
102
RTVSPost2010PropOp49
 70
     1
102
RTVSPost2010Prop50
 90
       50
102
RTVSPost2010PropOp50
 70
     1
102
RTVSPost2010Prop51ColorIndex
 90
      256
102
RTVSPost2010Prop51ColorRGB
 90
-16777216
102
RTVSPost2010PropOp51
 70
     0
102
RTVSPost2010Prop52
140
1.0
102
RTVSPost2010PropOp52
 70
     0
102
RTVSPost2010Prop53
 90
        2
102
RTVSPost2010PropOp53
 70
     1
102
RTVSPost2010Prop54
  1
strokes_ogs.tif
102
RTVSPost2010PropOp54
 70
     1
102
RTVSPost2010Prop55
280
     0
102
RTVSPost2010PropOp55
 70
     1
102
RTVSPost2010Prop56
140
1.0
102
RTVSPost2010PropOp56
 70
     1
102
RTVSPost2010Prop57
140
1.0
102
RTVSPost2010PropOp57
 70
     1
102
RTVSPropertyOp33
 70
     1
102
RTVSPropertyOp34
 70
     1
102
RTVSPropertyOp35
 70
     1
102
RTVSPropertyOp36
 70
     1
102
RTVSPropertyOp37
 70
     1
102
RTVSPropertyOp38
 70
     1
102
RTVSPropertyOp39
 70
     1
102
RTVSPropertyOp40
 70
     1
102
RTVSPropertyOp41
 70
     1
102
RTVSPropertyOp42
 70
     1
102
RTVSPropertyOp43
 70
     1
102
RTVSPropertyOp44
 70
     1
102
RTVSPropertyOp45
 70
     1
102
RTVSPropertyOp46
 70
     1
102
RTVSPropertyOp47
 70
     1
102
RTVSPropertyOp48
 70
     1
102
RTVSPropertyOp49
 70
     1
102
RTVSPropertyOp50
 70
     1
102
RTVSPropertyOp51
 70
     0
102
RTVSPropertyOp52
 70
     0
102
RTVSPropertyOp53
 70
     1
102
RTVSPropertyOp54
 70
     1
102
RTVSPropertyOp55
 70
     1
102
RTVSPropertyOp56
 70
     1
102
RTVSPropertyOp57
 70
     1
102
RTVSPropertyOp58
 70
     1
102
RTVSPropertyOp59
 70
     1
102
RTVSPropertyOp60
 70
     1
102
RTVSPropertyOp61
 70
     1
102
RTVSPropertyOp62
 70
     1
102
RTVSPropertyOp0
 70
     1
102
RTVSPropertyOp1
 70
     1
102
RTVSPropertyOp2
 70
     1
102
RTVSPropertyOp3
 70
     1
102
RTVSPropertyOp4
 70
     1
102
RTVSPropertyOp5
 70
     1
102
RTVSPropertyOp6
 70
     1
102
RTVSPropertyOp7
 70
     1
102
RTVSPropertyOp8
 70
     1
102
RTVSPropertyOp9
 70
     1
102
RTVSPropertyOp10
 70
     1
102
RTVSPropertyOp11
 70
     1
102
RTVSPropertyOp12
 70
     1
102
RTVSPropertyOp13
 70
     1
102
RTVSPropertyOp14
 70
     1
102
RTVSPropertyOp15
 70
     1
102
RTVSPropertyOp16
 70
     1
102
RTVSPropertyOp17
 70
     1
102
RTVSPropertyOp18
 70
     1
102
RTVSPropertyOp19
 70
     1
102
RTVSPropertyOp20
 70
     1
102
RTVSPropertyOp21
 70
     1
102
RTVSPropertyOp22
 70
     1
102
RTVSPropertyOp23
 70
     1
102
RTVSPropertyOp24
 70
     1
102
RTVSPropertyOp25
 70
     1
102
RTVSPropertyOp26
 70
     1
102
RTVSPropertyOp27
 70
     1
102
RTVSPropertyOp28
 70
     1
102
RTVSPropertyOp29
 70
     1
102
RTVSPropertyOp30
 70
     1
102
RTVSPropertyOp31
 70
     1
102
RTVSPropertyOp32
 70
     1
  0
XRECORD
  5
245E
102
{ACAD_REACTORS
330
245D
102
}
330
245D
100
AcDbXrecord
280
     1
102
RTVSPost2010Prop28
280
     0
102
RTVSPost2010PropOp28
 70
     1
102
RTVSPost2010Prop29
280
     1
102
RTVSPost2010PropOp29
 70
     1
102
RTVSPost2010Prop30
280
     1
102
RTVSPost2010PropOp30
 70
     1
102
RTVSPost2010Prop31
280
     0
102
RTVSPost2010PropOp31
 70
     1
102
RTVSPost2010Prop32
280
     0
102
RTVSPost2010PropOp32
 70
     1
102
RTVSPost2010Prop33
280
     0
102
RTVSPost2010PropOp33
 70
     1
102
RTVSPost2010Prop34
280
     0
102
RTVSPost2010PropOp34
 70
     1
102
RTVSPost2010Prop35
280
     0
102
RTVSPost2010PropOp35
 70
     1
102
RTVSPost2010Prop36
280
     0
102
RTVSPost2010PropOp36
 70
     1
102
RTVSPost2010Prop37
 90
       50
102
RTVSPost2010PropOp37
 70
     1
102
RTVSPost2010Prop38
140
0.0
102
RTVSPost2010PropOp38
 70
     1
102
RTVSPost2010Prop39
140
1.0
102
RTVSPost2010PropOp39
 70
     1
102
RTVSPost2010Prop40
 90
        0
102
RTVSPost2010PropOp40
 70
     1
102
RTVSPost2010Prop41ColorIndex
 90
       18
102
RTVSPost2010Prop41ColorRGB
 90
        0
102
RTVSPost2010PropOp41
 70
     1
102
RTVSPost2010Prop42
 90
       50
102
RTVSPost2010PropOp42
 70
     1
102
RTVSPost2010Prop43
 90
        3
102
RTVSPost2010PropOp43
 70
     1
102
RTVSPost2010Prop44ColorIndex
 90
        5
102
RTVSPost2010Prop44ColorRGB
 90
      255
102
RTVSPost2010PropOp44
 70
     1
102
RTVSPost2010Prop45
280
     0
102
RTVSPost2010PropOp45
 70
     1
102
RTVSPost2010Prop46
 90
       50
102
RTVSPost2010PropOp46
 70
     1
102
RTVSPost2010Prop47
 90
       50
102
RTVSPost2010PropOp47
 70
     1
102
RTVSPost2010Prop48
 90
       50
102
RTVSPost2010PropOp48
 70
     1
102
RTVSPost2010Prop49
280
     0
102
RTVSPost2010PropOp49
 70
     1
102
RTVSPost2010Prop50
 90
       50
102
RTVSPost2010PropOp50
 70
     1
102
RTVSPost2010Prop51ColorIndex
 90
      256
102
RTVSPost2010Prop51ColorRGB
 90
-16777216
102
RTVSPost2010PropOp51
 70
     0
102
RTVSPost2010Prop52
140
1.0
102
RTVSPost2010PropOp52
 70
     0
102
RTVSPost2010Prop53
 90
        2
102
RTVSPost2010PropOp53
 70
     1
102
RTVSPost2010Prop54
  1
strokes_ogs.tif
102
RTVSPost2010PropOp54
 70
     1
102
RTVSPost2010Prop55
280
     0
102
RTVSPost2010PropOp55
 70
     1
102
RTVSPost2010Prop56
140
1.0
102
RTVSPost2010PropOp56
 70
     1
102
RTVSPost2010Prop57
140
1.0
102
RTVSPost2010PropOp57
 70
     1
102
RTVSPropertyOp33
 70
     1
102
RTVSPropertyOp34
 70
     1
102
RTVSPropertyOp35
 70
     1
102
RTVSPropertyOp36
 70
     1
102
RTVSPropertyOp37
 70
     1
102
RTVSPropertyOp38
 70
     1
102
RTVSPropertyOp39
 70
     1
102
RTVSPropertyOp40
 70
     1
102
RTVSPropertyOp41
 70
     1
102
RTVSPropertyOp42
 70
     1
102
RTVSPropertyOp43
 70
     1
102
RTVSPropertyOp44
 70
     1
102
RTVSPropertyOp45
 70
     1
102
RTVSPropertyOp46
 70
     1
102
RTVSPropertyOp47
 70
     1
102
RTVSPropertyOp48
 70
     1
102
RTVSPropertyOp49
 70
     1
102
RTVSPropertyOp50
 70
     1
102
RTVSPropertyOp51
 70
     0
102
RTVSPropertyOp52
 70
     0
102
RTVSPropertyOp53
 70
     1
102
RTVSPropertyOp54
 70
     1
102
RTVSPropertyOp55
 70
     1
102
RTVSPropertyOp56
 70
     1
102
RTVSPropertyOp57
 70
     1
102
RTVSPropertyOp58
 70
     1
102
RTVSPropertyOp59
 70
     1
102
RTVSPropertyOp60
 70
     1
102
RTVSPropertyOp61
 70
     1
102
RTVSPropertyOp62
 70
     1
102
RTVSPropertyOp0
 70
     1
102
RTVSPropertyOp1
 70
     1
102
RTVSPropertyOp2
 70
     1
102
RTVSPropertyOp3
 70
     1
102
RTVSPropertyOp4
 70
     1
102
RTVSPropertyOp5
 70
     1
102
RTVSPropertyOp6
 70
     1
102
RTVSPropertyOp7
 70
     1
102
RTVSPropertyOp8
 70
     1
102
RTVSPropertyOp9
 70
     1
102
RTVSPropertyOp10
 70
     1
102
RTVSPropertyOp11
 70
     1
102
RTVSPropertyOp12
 70
     1
102
RTVSPropertyOp13
 70
     1
102
RTVSPropertyOp14
 70
     1
102
RTVSPropertyOp15
 70
     1
102
RTVSPropertyOp16
 70
     1
102
RTVSPropertyOp17
 70
     1
102
RTVSPropertyOp18
 70
     1
102
RTVSPropertyOp19
 70
     1
102
RTVSPropertyOp20
 70
     1
102
RTVSPropertyOp21
 70
     1
102
RTVSPropertyOp22
 70
     1
102
RTVSPropertyOp23
 70
     1
102
RTVSPropertyOp24
 70
     1
102
RTVSPropertyOp25
 70
     1
102
RTVSPropertyOp26
 70
     1
102
RTVSPropertyOp27
 70
     1
102
RTVSPropertyOp28
 70
     1
102
RTVSPropertyOp29
 70
     1
102
RTVSPropertyOp30
 70
     1
102
RTVSPropertyOp31
 70
     1
102
RTVSPropertyOp32
 70
     1
  0
XRECORD
  5
2471
102
{ACAD_REACTORS
330
2470
102
}
330
2470
100
AcDbXrecord
280
     1
102
RTVSPost2010Prop28
280
     0
102
RTVSPost2010PropOp28
 70
     1
102
RTVSPost2010Prop29
280
     1
102
RTVSPost2010PropOp29
 70
     1
102
RTVSPost2010Prop30
280
     1
102
RTVSPost2010PropOp30
 70
     1
102
RTVSPost2010Prop31
280
     0
102
RTVSPost2010PropOp31
 70
     1
102
RTVSPost2010Prop32
280
     0
102
RTVSPost2010PropOp32
 70
     1
102
RTVSPost2010Prop33
280
     0
102
RTVSPost2010PropOp33
 70
     1
102
RTVSPost2010Prop34
280
     0
102
RTVSPost2010PropOp34
 70
     1
102
RTVSPost2010Prop35
280
     0
102
RTVSPost2010PropOp35
 70
     1
102
RTVSPost2010Prop36
280
     0
102
RTVSPost2010PropOp36
 70
     1
102
RTVSPost2010Prop37
 90
       50
102
RTVSPost2010PropOp37
 70
     1
102
RTVSPost2010Prop38
140
0.0
102
RTVSPost2010PropOp38
 70
     1
102
RTVSPost2010Prop39
140
1.0
102
RTVSPost2010PropOp39
 70
     1
102
RTVSPost2010Prop40
 90
        0
102
RTVSPost2010PropOp40
 70
     1
102
RTVSPost2010Prop41ColorIndex
 90
       18
102
RTVSPost2010Prop41ColorRGB
 90
        0
102
RTVSPost2010PropOp41
 70
     1
102
RTVSPost2010Prop42
 90
       50
102
RTVSPost2010PropOp42
 70
     1
102
RTVSPost2010Prop43
 90
        3
102
RTVSPost2010PropOp43
 70
     1
102
RTVSPost2010Prop44ColorIndex
 90
        5
102
RTVSPost2010Prop44ColorRGB
 90
      255
102
RTVSPost2010PropOp44
 70
     1
102
RTVSPost2010Prop45
280
     0
102
RTVSPost2010PropOp45
 70
     1
102
RTVSPost2010Prop46
 90
       50
102
RTVSPost2010PropOp46
 70
     1
102
RTVSPost2010Prop47
 90
       50
102
RTVSPost2010PropOp47
 70
     1
102
RTVSPost2010Prop48
 90
       50
102
RTVSPost2010PropOp48
 70
     1
102
RTVSPost2010Prop49
280
     0
102
RTVSPost2010PropOp49
 70
     1
102
RTVSPost2010Prop50
 90
       50
102
RTVSPost2010PropOp50
 70
     1
102
RTVSPost2010Prop51ColorIndex
 90
      256
102
RTVSPost2010Prop51ColorRGB
 90
-16777216
102
RTVSPost2010PropOp51
 70
     0
102
RTVSPost2010Prop52
140
1.0
102
RTVSPost2010PropOp52
 70
     0
102
RTVSPost2010Prop53
 90
        2
102
RTVSPost2010PropOp53
 70
     1
102
RTVSPost2010Prop54
  1
strokes_ogs.tif
102
RTVSPost2010PropOp54
 70
     1
102
RTVSPost2010Prop55
280
     0
102
RTVSPost2010PropOp55
 70
     1
102
RTVSPost2010Prop56
140
1.0
102
RTVSPost2010PropOp56
 70
     1
102
RTVSPost2010Prop57
140
1.0
102
RTVSPost2010PropOp57
 70
     1
102
RTVSPropertyOp33
 70
     1
102
RTVSPropertyOp34
 70
     1
102
RTVSPropertyOp35
 70
     1
102
RTVSPropertyOp36
 70
     1
102
RTVSPropertyOp37
 70
     1
102
RTVSPropertyOp38
 70
     1
102
RTVSPropertyOp39
 70
     1
102
RTVSPropertyOp40
 70
     1
102
RTVSPropertyOp41
 70
     1
102
RTVSPropertyOp42
 70
     1
102
RTVSPropertyOp43
 70
     1
102
RTVSPropertyOp44
 70
     1
102
RTVSPropertyOp45
 70
     1
102
RTVSPropertyOp46
 70
     1
102
RTVSPropertyOp47
 70
     1
102
RTVSPropertyOp48
 70
     1
102
RTVSPropertyOp49
 70
     1
102
RTVSPropertyOp50
 70
     1
102
RTVSPropertyOp51
 70
     0
102
RTVSPropertyOp52
 70
     0
102
RTVSPropertyOp53
 70
     1
102
RTVSPropertyOp54
 70
     1
102
RTVSPropertyOp55
 70
     1
102
RTVSPropertyOp56
 70
     1
102
RTVSPropertyOp57
 70
     1
102
RTVSPropertyOp58
 70
     1
102
RTVSPropertyOp59
 70
     1
102
RTVSPropertyOp60
 70
     1
102
RTVSPropertyOp61
 70
     1
102
RTVSPropertyOp62
 70
     1
102
RTVSPropertyOp0
 70
     0
102
RTVSPropertyOp1
 70
     0
102
RTVSPropertyOp2
 70
     0
102
RTVSPropertyOp3
 70
     0
102
RTVSPropertyOp4
 70
     0
102
RTVSPropertyOp5
 70
     0
102
RTVSPropertyOp6
 70
     0
102
RTVSPropertyOp7
 70
     0
102
RTVSPropertyOp8
 70
     0
102
RTVSPropertyOp9
 70
     0
102
RTVSPropertyOp10
 70
     0
102
RTVSPropertyOp11
 70
     0
102
RTVSPropertyOp12
 70
     0
102
RTVSPropertyOp13
 70
     0
102
RTVSPropertyOp14
 70
     2
102
RTVSPropertyOp15
 70
     0
102
RTVSPropertyOp16
 70
     0
102
RTVSPropertyOp17
 70
     0
102
RTVSPropertyOp18
 70
     0
102
RTVSPropertyOp19
 70
     0
102
RTVSPropertyOp20
 70
     0
102
RTVSPropertyOp21
 70
     0
102
RTVSPropertyOp22
 70
     0
102
RTVSPropertyOp23
 70
     0
102
RTVSPropertyOp24
 70
     0
102
RTVSPropertyOp25
 70
     0
102
RTVSPropertyOp26
 70
     0
102
RTVSPropertyOp27
 70
     0
102
RTVSPropertyOp28
 70
     1
102
RTVSPropertyOp29
 70
     1
102
RTVSPropertyOp30
 70
     1
102
RTVSPropertyOp31
 70
     1
102
RTVSPropertyOp32
 70
     1
  0
XRECORD
  5
246A
102
{ACAD_REACTORS
330
2469
102
}
330
2469
100
AcDbXrecord
280
     1
102
RTVSPost2010Prop28
280
     0
102
RTVSPost2010PropOp28
 70
     1
102
RTVSPost2010Prop29
280
     1
102
RTVSPost2010PropOp29
 70
     1
102
RTVSPost2010Prop30
280
     1
102
RTVSPost2010PropOp30
 70
     1
102
RTVSPost2010Prop31
280
     0
102
RTVSPost2010PropOp31
 70
     1
102
RTVSPost2010Prop32
280
     0
102
RTVSPost2010PropOp32
 70
     1
102
RTVSPost2010Prop33
280
     0
102
RTVSPost2010PropOp33
 70
     1
102
RTVSPost2010Prop34
280
     0
102
RTVSPost2010PropOp34
 70
     1
102
RTVSPost2010Prop35
280
     0
102
RTVSPost2010PropOp35
 70
     1
102
RTVSPost2010Prop36
280
     0
102
RTVSPost2010PropOp36
 70
     1
102
RTVSPost2010Prop37
 90
       50
102
RTVSPost2010PropOp37
 70
     1
102
RTVSPost2010Prop38
140
0.0
102
RTVSPost2010PropOp38
 70
     1
102
RTVSPost2010Prop39
140
1.0
102
RTVSPost2010PropOp39
 70
     1
102
RTVSPost2010Prop40
 90
        0
102
RTVSPost2010PropOp40
 70
     1
102
RTVSPost2010Prop41ColorIndex
 90
       18
102
RTVSPost2010Prop41ColorRGB
 90
        0
102
RTVSPost2010PropOp41
 70
     1
102
RTVSPost2010Prop42
 90
       50
102
RTVSPost2010PropOp42
 70
     1
102
RTVSPost2010Prop43
 90
        3
102
RTVSPost2010PropOp43
 70
     1
102
RTVSPost2010Prop44ColorIndex
 90
        5
102
RTVSPost2010Prop44ColorRGB
 90
      255
102
RTVSPost2010PropOp44
 70
     1
102
RTVSPost2010Prop45
280
     0
102
RTVSPost2010PropOp45
 70
     1
102
RTVSPost2010Prop46
 90
       50
102
RTVSPost2010PropOp46
 70
     1
102
RTVSPost2010Prop47
 90
       50
102
RTVSPost2010PropOp47
 70
     1
102
RTVSPost2010Prop48
 90
       50
102
RTVSPost2010PropOp48
 70
     1
102
RTVSPost2010Prop49
280
     0
102
RTVSPost2010PropOp49
 70
     1
102
RTVSPost2010Prop50
 90
       50
102
RTVSPost2010PropOp50
 70
     1
102
RTVSPost2010Prop51ColorIndex
 90
      256
102
RTVSPost2010Prop51ColorRGB
 90
-16777216
102
RTVSPost2010PropOp51
 70
     0
102
RTVSPost2010Prop52
140
1.0
102
RTVSPost2010PropOp52
 70
     0
102
RTVSPost2010Prop53
 90
        2
102
RTVSPost2010PropOp53
 70
     1
102
RTVSPost2010Prop54
  1
strokes_ogs.tif
102
RTVSPost2010PropOp54
 70
     1
102
RTVSPost2010Prop55
280
     0
102
RTVSPost2010PropOp55
 70
     1
102
RTVSPost2010Prop56
140
1.0
102
RTVSPost2010PropOp56
 70
     1
102
RTVSPost2010Prop57
140
1.0
102
RTVSPost2010PropOp57
 70
     1
102
RTVSPropertyOp33
 70
     1
102
RTVSPropertyOp34
 70
     1
102
RTVSPropertyOp35
 70
     1
102
RTVSPropertyOp36
 70
     1
102
RTVSPropertyOp37
 70
     1
102
RTVSPropertyOp38
 70
     1
102
RTVSPropertyOp39
 70
     1
102
RTVSPropertyOp40
 70
     1
102
RTVSPropertyOp41
 70
     1
102
RTVSPropertyOp42
 70
     1
102
RTVSPropertyOp43
 70
     1
102
RTVSPropertyOp44
 70
     1
102
RTVSPropertyOp45
 70
     1
102
RTVSPropertyOp46
 70
     1
102
RTVSPropertyOp47
 70
     1
102
RTVSPropertyOp48
 70
     1
102
RTVSPropertyOp49
 70
     1
102
RTVSPropertyOp50
 70
     1
102
RTVSPropertyOp51
 70
     0
102
RTVSPropertyOp52
 70
     0
102
RTVSPropertyOp53
 70
     1
102
RTVSPropertyOp54
 70
     1
102
RTVSPropertyOp55
 70
     1
102
RTVSPropertyOp56
 70
     1
102
RTVSPropertyOp57
 70
     1
102
RTVSPropertyOp58
 70
     1
102
RTVSPropertyOp59
 70
     1
102
RTVSPropertyOp60
 70
     1
102
RTVSPropertyOp61
 70
     1
102
RTVSPropertyOp62
 70
     1
102
RTVSPropertyOp0
 70
     1
102
RTVSPropertyOp1
 70
     1
102
RTVSPropertyOp2
 70
     1
102
RTVSPropertyOp3
 70
     1
102
RTVSPropertyOp4
 70
     1
102
RTVSPropertyOp5
 70
     1
102
RTVSPropertyOp6
 70
     1
102
RTVSPropertyOp7
 70
     1
102
RTVSPropertyOp8
 70
     1
102
RTVSPropertyOp9
 70
     1
102
RTVSPropertyOp10
 70
     1
102
RTVSPropertyOp11
 70
     1
102
RTVSPropertyOp12
 70
     1
102
RTVSPropertyOp13
 70
     1
102
RTVSPropertyOp14
 70
     1
102
RTVSPropertyOp15
 70
     1
102
RTVSPropertyOp16
 70
     1
102
RTVSPropertyOp17
 70
     1
102
RTVSPropertyOp18
 70
     1
102
RTVSPropertyOp19
 70
     1
102
RTVSPropertyOp20
 70
     1
102
RTVSPropertyOp21
 70
     1
102
RTVSPropertyOp22
 70
     1
102
RTVSPropertyOp23
 70
     1
102
RTVSPropertyOp24
 70
     1
102
RTVSPropertyOp25
 70
     1
102
RTVSPropertyOp26
 70
     1
102
RTVSPropertyOp27
 70
     1
102
RTVSPropertyOp28
 70
     1
102
RTVSPropertyOp29
 70
     1
102
RTVSPropertyOp30
 70
     1
102
RTVSPropertyOp31
 70
     1
102
RTVSPropertyOp32
 70
     1
  0
XRECORD
  5
2473
102
{ACAD_REACTORS
330
2472
102
}
330
2472
100
AcDbXrecord
280
     1
102
RTVSPost2010Prop28
280
     0
102
RTVSPost2010PropOp28
 70
     1
102
RTVSPost2010Prop29
280
     1
102
RTVSPost2010PropOp29
 70
     1
102
RTVSPost2010Prop30
280
     1
102
RTVSPost2010PropOp30
 70
     1
102
RTVSPost2010Prop31
280
     0
102
RTVSPost2010PropOp31
 70
     1
102
RTVSPost2010Prop32
280
     0
102
RTVSPost2010PropOp32
 70
     1
102
RTVSPost2010Prop33
280
     0
102
RTVSPost2010PropOp33
 70
     1
102
RTVSPost2010Prop34
280
     0
102
RTVSPost2010PropOp34
 70
     1
102
RTVSPost2010Prop35
280
     0
102
RTVSPost2010PropOp35
 70
     1
102
RTVSPost2010Prop36
280
     0
102
RTVSPost2010PropOp36
 70
     1
102
RTVSPost2010Prop37
 90
       50
102
RTVSPost2010PropOp37
 70
     1
102
RTVSPost2010Prop38
140
0.0
102
RTVSPost2010PropOp38
 70
     1
102
RTVSPost2010Prop39
140
1.0
102
RTVSPost2010PropOp39
 70
     1
102
RTVSPost2010Prop40
 90
        0
102
RTVSPost2010PropOp40
 70
     1
102
RTVSPost2010Prop41ColorIndex
 90
       18
102
RTVSPost2010Prop41ColorRGB
 90
        0
102
RTVSPost2010PropOp41
 70
     1
102
RTVSPost2010Prop42
 90
       50
102
RTVSPost2010PropOp42
 70
     1
102
RTVSPost2010Prop43
 90
        3
102
RTVSPost2010PropOp43
 70
     1
102
RTVSPost2010Prop44ColorIndex
 90
        5
102
RTVSPost2010Prop44ColorRGB
 90
      255
102
RTVSPost2010PropOp44
 70
     1
102
RTVSPost2010Prop45
280
     0
102
RTVSPost2010PropOp45
 70
     1
102
RTVSPost2010Prop46
 90
       50
102
RTVSPost2010PropOp46
 70
     1
102
RTVSPost2010Prop47
 90
       50
102
RTVSPost2010PropOp47
 70
     1
102
RTVSPost2010Prop48
 90
       50
102
RTVSPost2010PropOp48
 70
     1
102
RTVSPost2010Prop49
280
     0
102
RTVSPost2010PropOp49
 70
     1
102
RTVSPost2010Prop50
 90
       50
102
RTVSPost2010PropOp50
 70
     1
102
RTVSPost2010Prop51ColorIndex
 90
      256
102
RTVSPost2010Prop51ColorRGB
 90
-16777216
102
RTVSPost2010PropOp51
 70
     0
102
RTVSPost2010Prop52
140
1.0
102
RTVSPost2010PropOp52
 70
     0
102
RTVSPost2010Prop53
 90
        2
102
RTVSPost2010PropOp53
 70
     1
102
RTVSPost2010Prop54
  1
strokes_ogs.tif
102
RTVSPost2010PropOp54
 70
     1
102
RTVSPost2010Prop55
280
     0
102
RTVSPost2010PropOp55
 70
     1
102
RTVSPost2010Prop56
140
1.0
102
RTVSPost2010PropOp56
 70
     1
102
RTVSPost2010Prop57
140
1.0
102
RTVSPost2010PropOp57
 70
     1
102
RTVSPropertyOp33
 70
     1
102
RTVSPropertyOp34
 70
     1
102
RTVSPropertyOp35
 70
     1
102
RTVSPropertyOp36
 70
     1
102
RTVSPropertyOp37
 70
     1
102
RTVSPropertyOp38
 70
     1
102
RTVSPropertyOp39
 70
     1
102
RTVSPropertyOp40
 70
     1
102
RTVSPropertyOp41
 70
     1
102
RTVSPropertyOp42
 70
     1
102
RTVSPropertyOp43
 70
     1
102
RTVSPropertyOp44
 70
     1
102
RTVSPropertyOp45
 70
     1
102
RTVSPropertyOp46
 70
     1
102
RTVSPropertyOp47
 70
     1
102
RTVSPropertyOp48
 70
     1
102
RTVSPropertyOp49
 70
     1
102
RTVSPropertyOp50
 70
     1
102
RTVSPropertyOp51
 70
     0
102
RTVSPropertyOp52
 70
     0
102
RTVSPropertyOp53
 70
     1
102
RTVSPropertyOp54
 70
     1
102
RTVSPropertyOp55
 70
     1
102
RTVSPropertyOp56
 70
     1
102
RTVSPropertyOp57
 70
     1
102
RTVSPropertyOp58
 70
     1
102
RTVSPropertyOp59
 70
     1
102
RTVSPropertyOp60
 70
     1
102
RTVSPropertyOp61
 70
     1
102
RTVSPropertyOp62
 70
     1
102
RTVSPropertyOp0
 70
     0
102
RTVSPropertyOp1
 70
     0
102
RTVSPropertyOp2
 70
     0
102
RTVSPropertyOp3
 70
     0
102
RTVSPropertyOp4
 70
     0
102
RTVSPropertyOp5
 70
     0
102
RTVSPropertyOp6
 70
     0
102
RTVSPropertyOp7
 70
     0
102
RTVSPropertyOp8
 70
     0
102
RTVSPropertyOp9
 70
     0
102
RTVSPropertyOp10
 70
     0
102
RTVSPropertyOp11
 70
     0
102
RTVSPropertyOp12
 70
     0
102
RTVSPropertyOp13
 70
     0
102
RTVSPropertyOp14
 70
     2
102
RTVSPropertyOp15
 70
     0
102
RTVSPropertyOp16
 70
     0
102
RTVSPropertyOp17
 70
     0
102
RTVSPropertyOp18
 70
     0
102
RTVSPropertyOp19
 70
     0
102
RTVSPropertyOp20
 70
     0
102
RTVSPropertyOp21
 70
     0
102
RTVSPropertyOp22
 70
     0
102
RTVSPropertyOp23
 70
     0
102
RTVSPropertyOp24
 70
     0
102
RTVSPropertyOp25
 70
     0
102
RTVSPropertyOp26
 70
     0
102
RTVSPropertyOp27
 70
     0
102
RTVSPropertyOp28
 70
     1
102
RTVSPropertyOp29
 70
     1
102
RTVSPropertyOp30
 70
     1
102
RTVSPropertyOp31
 70
     1
102
RTVSPropertyOp32
 70
     1
  0
XRECORD
  5
2462
102
{ACAD_REACTORS
330
2461
102
}
330
2461
100
AcDbXrecord
280
     1
102
RTVSPost2010Prop28
280
     0
102
RTVSPost2010PropOp28
 70
     1
102
RTVSPost2010Prop29
280
     1
102
RTVSPost2010PropOp29
 70
     1
102
RTVSPost2010Prop30
280
     1
102
RTVSPost2010PropOp30
 70
     1
102
RTVSPost2010Prop31
280
     0
102
RTVSPost2010PropOp31
 70
     1
102
RTVSPost2010Prop32
280
     0
102
RTVSPost2010PropOp32
 70
     1
102
RTVSPost2010Prop33
280
     0
102
RTVSPost2010PropOp33
 70
     1
102
RTVSPost2010Prop34
280
     0
102
RTVSPost2010PropOp34
 70
     1
102
RTVSPost2010Prop35
280
     0
102
RTVSPost2010PropOp35
 70
     1
102
RTVSPost2010Prop36
280
     0
102
RTVSPost2010PropOp36
 70
     1
102
RTVSPost2010Prop37
 90
       50
102
RTVSPost2010PropOp37
 70
     1
102
RTVSPost2010Prop38
140
0.0
102
RTVSPost2010PropOp38
 70
     1
102
RTVSPost2010Prop39
140
1.0
102
RTVSPost2010PropOp39
 70
     1
102
RTVSPost2010Prop40
 90
        0
102
RTVSPost2010PropOp40
 70
     1
102
RTVSPost2010Prop41ColorIndex
 90
       18
102
RTVSPost2010Prop41ColorRGB
 90
        0
102
RTVSPost2010PropOp41
 70
     1
102
RTVSPost2010Prop42
 90
       50
102
RTVSPost2010PropOp42
 70
     1
102
RTVSPost2010Prop43
 90
        3
102
RTVSPost2010PropOp43
 70
     1
102
RTVSPost2010Prop44ColorIndex
 90
        5
102
RTVSPost2010Prop44ColorRGB
 90
      255
102
RTVSPost2010PropOp44
 70
     1
102
RTVSPost2010Prop45
280
     0
102
RTVSPost2010PropOp45
 70
     1
102
RTVSPost2010Prop46
 90
       50
102
RTVSPost2010PropOp46
 70
     1
102
RTVSPost2010Prop47
 90
       50
102
RTVSPost2010PropOp47
 70
     1
102
RTVSPost2010Prop48
 90
       50
102
RTVSPost2010PropOp48
 70
     1
102
RTVSPost2010Prop49
280
     0
102
RTVSPost2010PropOp49
 70
     1
102
RTVSPost2010Prop50
 90
       50
102
RTVSPost2010PropOp50
 70
     1
102
RTVSPost2010Prop51ColorIndex
 90
      256
102
RTVSPost2010Prop51ColorRGB
 90
-16777216
102
RTVSPost2010PropOp51
 70
     0
102
RTVSPost2010Prop52
140
1.0
102
RTVSPost2010PropOp52
 70
     0
102
RTVSPost2010Prop53
 90
        2
102
RTVSPost2010PropOp53
 70
     1
102
RTVSPost2010Prop54
  1
strokes_ogs.tif
102
RTVSPost2010PropOp54
 70
     1
102
RTVSPost2010Prop55
280
     0
102
RTVSPost2010PropOp55
 70
     1
102
RTVSPost2010Prop56
140
1.0
102
RTVSPost2010PropOp56
 70
     1
102
RTVSPost2010Prop57
140
1.0
102
RTVSPost2010PropOp57
 70
     1
102
RTVSPropertyOp33
 70
     1
102
RTVSPropertyOp34
 70
     1
102
RTVSPropertyOp35
 70
     1
102
RTVSPropertyOp36
 70
     1
102
RTVSPropertyOp37
 70
     1
102
RTVSPropertyOp38
 70
     1
102
RTVSPropertyOp39
 70
     1
102
RTVSPropertyOp40
 70
     1
102
RTVSPropertyOp41
 70
     1
102
RTVSPropertyOp42
 70
     1
102
RTVSPropertyOp43
 70
     1
102
RTVSPropertyOp44
 70
     1
102
RTVSPropertyOp45
 70
     1
102
RTVSPropertyOp46
 70
     1
102
RTVSPropertyOp47
 70
     1
102
RTVSPropertyOp48
 70
     1
102
RTVSPropertyOp49
 70
     1
102
RTVSPropertyOp50
 70
     1
102
RTVSPropertyOp51
 70
     0
102
RTVSPropertyOp52
 70
     0
102
RTVSPropertyOp53
 70
     1
102
RTVSPropertyOp54
 70
     1
102
RTVSPropertyOp55
 70
     1
102
RTVSPropertyOp56
 70
     1
102
RTVSPropertyOp57
 70
     1
102
RTVSPropertyOp58
 70
     1
102
RTVSPropertyOp59
 70
     1
102
RTVSPropertyOp60
 70
     1
102
RTVSPropertyOp61
 70
     1
102
RTVSPropertyOp62
 70
     1
102
RTVSPropertyOp0
 70
     1
102
RTVSPropertyOp1
 70
     1
102
RTVSPropertyOp2
 70
     1
102
RTVSPropertyOp3
 70
     1
102
RTVSPropertyOp4
 70
     1
102
RTVSPropertyOp5
 70
     1
102
RTVSPropertyOp6
 70
     1
102
RTVSPropertyOp7
 70
     1
102
RTVSPropertyOp8
 70
     1
102
RTVSPropertyOp9
 70
     1
102
RTVSPropertyOp10
 70
     1
102
RTVSPropertyOp11
 70
     1
102
RTVSPropertyOp12
 70
     1
102
RTVSPropertyOp13
 70
     1
102
RTVSPropertyOp14
 70
     1
102
RTVSPropertyOp15
 70
     1
102
RTVSPropertyOp16
 70
     1
102
RTVSPropertyOp17
 70
     1
102
RTVSPropertyOp18
 70
     1
102
RTVSPropertyOp19
 70
     1
102
RTVSPropertyOp20
 70
     1
102
RTVSPropertyOp21
 70
     1
102
RTVSPropertyOp22
 70
     1
102
RTVSPropertyOp23
 70
     1
102
RTVSPropertyOp24
 70
     1
102
RTVSPropertyOp25
 70
     1
102
RTVSPropertyOp26
 70
     1
102
RTVSPropertyOp27
 70
     1
102
RTVSPropertyOp28
 70
     1
102
RTVSPropertyOp29
 70
     1
102
RTVSPropertyOp30
 70
     1
102
RTVSPropertyOp31
 70
     1
102
RTVSPropertyOp32
 70
     1
  0
XRECORD
  5
247F
102
{ACAD_REACTORS
330
247E
102
}
330
247E
100
AcDbXrecord
280
     1
102
RTVSPost2010Prop28
280
     0
102
RTVSPost2010PropOp28
 70
     1
102
RTVSPost2010Prop29
280
     1
102
RTVSPost2010PropOp29
 70
     1
102
RTVSPost2010Prop30
280
     1
102
RTVSPost2010PropOp30
 70
     1
102
RTVSPost2010Prop31
280
     0
102
RTVSPost2010PropOp31
 70
     1
102
RTVSPost2010Prop32
280
     0
102
RTVSPost2010PropOp32
 70
     1
102
RTVSPost2010Prop33
280
     0
102
RTVSPost2010PropOp33
 70
     1
102
RTVSPost2010Prop34
280
     0
102
RTVSPost2010PropOp34
 70
     1
102
RTVSPost2010Prop35
280
     0
102
RTVSPost2010PropOp35
 70
     1
102
RTVSPost2010Prop36
280
     0
102
RTVSPost2010PropOp36
 70
     1
102
RTVSPost2010Prop37
 90
       50
102
RTVSPost2010PropOp37
 70
     1
102
RTVSPost2010Prop38
140
0.0
102
RTVSPost2010PropOp38
 70
     1
102
RTVSPost2010Prop39
140
1.0
102
RTVSPost2010PropOp39
 70
     1
102
RTVSPost2010Prop40
 90
        0
102
RTVSPost2010PropOp40
 70
     1
102
RTVSPost2010Prop41ColorIndex
 90
       18
102
RTVSPost2010Prop41ColorRGB
 90
        0
102
RTVSPost2010PropOp41
 70
     1
102
RTVSPost2010Prop42
 90
       50
102
RTVSPost2010PropOp42
 70
     1
102
RTVSPost2010Prop43
 90
        3
102
RTVSPost2010PropOp43
 70
     1
102
RTVSPost2010Prop44ColorIndex
 90
        5
102
RTVSPost2010Prop44ColorRGB
 90
      255
102
RTVSPost2010PropOp44
 70
     1
102
RTVSPost2010Prop45
280
     0
102
RTVSPost2010PropOp45
 70
     1
102
RTVSPost2010Prop46
 90
       50
102
RTVSPost2010PropOp46
 70
     1
102
RTVSPost2010Prop47
 90
       50
102
RTVSPost2010PropOp47
 70
     1
102
RTVSPost2010Prop48
 90
       50
102
RTVSPost2010PropOp48
 70
     1
102
RTVSPost2010Prop49
280
     0
102
RTVSPost2010PropOp49
 70
     1
102
RTVSPost2010Prop50
 90
       50
102
RTVSPost2010PropOp50
 70
     1
102
RTVSPost2010Prop51ColorIndex
 90
      256
102
RTVSPost2010Prop51ColorRGB
 90
-16777216
102
RTVSPost2010PropOp51
 70
     0
102
RTVSPost2010Prop52
140
1.0
102
RTVSPost2010PropOp52
 70
     0
102
RTVSPost2010Prop53
 90
        2
102
RTVSPost2010PropOp53
 70
     1
102
RTVSPost2010Prop54
  1
strokes_ogs.tif
102
RTVSPost2010PropOp54
 70
     1
102
RTVSPost2010Prop55
280
     0
102
RTVSPost2010PropOp55
 70
     1
102
RTVSPost2010Prop56
140
1.0
102
RTVSPost2010PropOp56
 70
     1
102
RTVSPost2010Prop57
140
1.0
102
RTVSPost2010PropOp57
 70
     1
102
RTVSPropertyOp33
 70
     1
102
RTVSPropertyOp34
 70
     1
102
RTVSPropertyOp35
 70
     1
102
RTVSPropertyOp36
 70
     1
102
RTVSPropertyOp37
 70
     1
102
RTVSPropertyOp38
 70
     1
102
RTVSPropertyOp39
 70
     1
102
RTVSPropertyOp40
 70
     1
102
RTVSPropertyOp41
 70
     1
102
RTVSPropertyOp42
 70
     1
102
RTVSPropertyOp43
 70
     1
102
RTVSPropertyOp44
 70
     1
102
RTVSPropertyOp45
 70
     1
102
RTVSPropertyOp46
 70
     1
102
RTVSPropertyOp47
 70
     1
102
RTVSPropertyOp48
 70
     1
102
RTVSPropertyOp49
 70
     1
102
RTVSPropertyOp50
 70
     1
102
RTVSPropertyOp51
 70
     0
102
RTVSPropertyOp52
 70
     0
102
RTVSPropertyOp53
 70
     1
102
RTVSPropertyOp54
 70
     1
102
RTVSPropertyOp55
 70
     1
102
RTVSPropertyOp56
 70
     1
102
RTVSPropertyOp57
 70
     1
102
RTVSPropertyOp58
 70
     1
102
RTVSPropertyOp59
 70
     1
102
RTVSPropertyOp60
 70
     1
102
RTVSPropertyOp61
 70
     1
102
RTVSPropertyOp62
 70
     1
102
RTVSPropertyOp0
 70
     1
102
RTVSPropertyOp1
 70
     1
102
RTVSPropertyOp2
 70
     1
102
RTVSPropertyOp3
 70
     1
102
RTVSPropertyOp4
 70
     1
102
RTVSPropertyOp5
 70
     1
102
RTVSPropertyOp6
 70
     1
102
RTVSPropertyOp7
 70
     1
102
RTVSPropertyOp8
 70
     1
102
RTVSPropertyOp9
 70
     1
102
RTVSPropertyOp10
 70
     1
102
RTVSPropertyOp11
 70
     1
102
RTVSPropertyOp12
 70
     1
102
RTVSPropertyOp13
 70
     1
102
RTVSPropertyOp14
 70
     1
102
RTVSPropertyOp15
 70
     1
102
RTVSPropertyOp16
 70
     1
102
RTVSPropertyOp17
 70
     1
102
RTVSPropertyOp18
 70
     1
102
RTVSPropertyOp19
 70
     1
102
RTVSPropertyOp20
 70
     1
102
RTVSPropertyOp21
 70
     1
102
RTVSPropertyOp22
 70
     1
102
RTVSPropertyOp23
 70
     1
102
RTVSPropertyOp24
 70
     1
102
RTVSPropertyOp25
 70
     1
102
RTVSPropertyOp26
 70
     1
102
RTVSPropertyOp27
 70
     1
102
RTVSPropertyOp28
 70
     1
102
RTVSPropertyOp29
 70
     1
102
RTVSPropertyOp30
 70
     1
102
RTVSPropertyOp31
 70
     1
102
RTVSPropertyOp32
 70
     1
  0
XRECORD
  5
247D
102
{ACAD_REACTORS
330
247C
102
}
330
247C
100
AcDbXrecord
280
     1
102
RTVSPost2010Prop28
280
     0
102
RTVSPost2010PropOp28
 70
     1
102
RTVSPost2010Prop29
280
     1
102
RTVSPost2010PropOp29
 70
     1
102
RTVSPost2010Prop30
280
     1
102
RTVSPost2010PropOp30
 70
     1
102
RTVSPost2010Prop31
280
     0
102
RTVSPost2010PropOp31
 70
     1
102
RTVSPost2010Prop32
280
     0
102
RTVSPost2010PropOp32
 70
     1
102
RTVSPost2010Prop33
280
     0
102
RTVSPost2010PropOp33
 70
     1
102
RTVSPost2010Prop34
280
     0
102
RTVSPost2010PropOp34
 70
     1
102
RTVSPost2010Prop35
280
     0
102
RTVSPost2010PropOp35
 70
     1
102
RTVSPost2010Prop36
280
     0
102
RTVSPost2010PropOp36
 70
     1
102
RTVSPost2010Prop37
 90
       50
102
RTVSPost2010PropOp37
 70
     1
102
RTVSPost2010Prop38
140
0.0
102
RTVSPost2010PropOp38
 70
     1
102
RTVSPost2010Prop39
140
1.0
102
RTVSPost2010PropOp39
 70
     1
102
RTVSPost2010Prop40
 90
        0
102
RTVSPost2010PropOp40
 70
     1
102
RTVSPost2010Prop41ColorIndex
 90
       18
102
RTVSPost2010Prop41ColorRGB
 90
        0
102
RTVSPost2010PropOp41
 70
     1
102
RTVSPost2010Prop42
 90
       50
102
RTVSPost2010PropOp42
 70
     1
102
RTVSPost2010Prop43
 90
        3
102
RTVSPost2010PropOp43
 70
     1
102
RTVSPost2010Prop44ColorIndex
 90
        5
102
RTVSPost2010Prop44ColorRGB
 90
      255
102
RTVSPost2010PropOp44
 70
     1
102
RTVSPost2010Prop45
280
     0
102
RTVSPost2010PropOp45
 70
     1
102
RTVSPost2010Prop46
 90
       50
102
RTVSPost2010PropOp46
 70
     1
102
RTVSPost2010Prop47
 90
       50
102
RTVSPost2010PropOp47
 70
     1
102
RTVSPost2010Prop48
 90
       50
102
RTVSPost2010PropOp48
 70
     1
102
RTVSPost2010Prop49
280
     0
102
RTVSPost2010PropOp49
 70
     1
102
RTVSPost2010Prop50
 90
       50
102
RTVSPost2010PropOp50
 70
     1
102
RTVSPost2010Prop51ColorIndex
 90
      256
102
RTVSPost2010Prop51ColorRGB
 90
-16777216
102
RTVSPost2010PropOp51
 70
     0
102
RTVSPost2010Prop52
140
1.0
102
RTVSPost2010PropOp52
 70
     0
102
RTVSPost2010Prop53
 90
        2
102
RTVSPost2010PropOp53
 70
     1
102
RTVSPost2010Prop54
  1
strokes_ogs.tif
102
RTVSPost2010PropOp54
 70
     1
102
RTVSPost2010Prop55
280
     0
102
RTVSPost2010PropOp55
 70
     1
102
RTVSPost2010Prop56
140
1.0
102
RTVSPost2010PropOp56
 70
     1
102
RTVSPost2010Prop57
140
1.0
102
RTVSPost2010PropOp57
 70
     1
102
RTVSPropertyOp33
 70
     1
102
RTVSPropertyOp34
 70
     1
102
RTVSPropertyOp35
 70
     1
102
RTVSPropertyOp36
 70
     1
102
RTVSPropertyOp37
 70
     1
102
RTVSPropertyOp38
 70
     1
102
RTVSPropertyOp39
 70
     1
102
RTVSPropertyOp40
 70
     1
102
RTVSPropertyOp41
 70
     1
102
RTVSPropertyOp42
 70
     1
102
RTVSPropertyOp43
 70
     1
102
RTVSPropertyOp44
 70
     1
102
RTVSPropertyOp45
 70
     1
102
RTVSPropertyOp46
 70
     1
102
RTVSPropertyOp47
 70
     1
102
RTVSPropertyOp48
 70
     1
102
RTVSPropertyOp49
 70
     1
102
RTVSPropertyOp50
 70
     1
102
RTVSPropertyOp51
 70
     0
102
RTVSPropertyOp52
 70
     0
102
RTVSPropertyOp53
 70
     1
102
RTVSPropertyOp54
 70
     1
102
RTVSPropertyOp55
 70
     1
102
RTVSPropertyOp56
 70
     1
102
RTVSPropertyOp57
 70
     1
102
RTVSPropertyOp58
 70
     1
102
RTVSPropertyOp59
 70
     1
102
RTVSPropertyOp60
 70
     1
102
RTVSPropertyOp61
 70
     1
102
RTVSPropertyOp62
 70
     1
102
RTVSPropertyOp0
 70
     1
102
RTVSPropertyOp1
 70
     1
102
RTVSPropertyOp2
 70
     1
102
RTVSPropertyOp3
 70
     1
102
RTVSPropertyOp4
 70
     1
102
RTVSPropertyOp5
 70
     1
102
RTVSPropertyOp6
 70
     1
102
RTVSPropertyOp7
 70
     1
102
RTVSPropertyOp8
 70
     1
102
RTVSPropertyOp9
 70
     1
102
RTVSPropertyOp10
 70
     1
102
RTVSPropertyOp11
 70
     1
102
RTVSPropertyOp12
 70
     1
102
RTVSPropertyOp13
 70
     1
102
RTVSPropertyOp14
 70
     1
102
RTVSPropertyOp15
 70
     1
102
RTVSPropertyOp16
 70
     1
102
RTVSPropertyOp17
 70
     1
102
RTVSPropertyOp18
 70
     1
102
RTVSPropertyOp19
 70
     1
102
RTVSPropertyOp20
 70
     1
102
RTVSPropertyOp21
 70
     1
102
RTVSPropertyOp22
 70
     1
102
RTVSPropertyOp23
 70
     1
102
RTVSPropertyOp24
 70
     1
102
RTVSPropertyOp25
 70
     1
102
RTVSPropertyOp26
 70
     1
102
RTVSPropertyOp27
 70
     1
102
RTVSPropertyOp28
 70
     1
102
RTVSPropertyOp29
 70
     1
102
RTVSPropertyOp30
 70
     1
102
RTVSPropertyOp31
 70
     1
102
RTVSPropertyOp32
 70
     1
  0
XRECORD
  5
2477
102
{ACAD_REACTORS
330
2476
102
}
330
2476
100
AcDbXrecord
280
     1
102
RTVSPost2010Prop28
280
     0
102
RTVSPost2010PropOp28
 70
     1
102
RTVSPost2010Prop29
280
     1
102
RTVSPost2010PropOp29
 70
     1
102
RTVSPost2010Prop30
280
     1
102
RTVSPost2010PropOp30
 70
     1
102
RTVSPost2010Prop31
280
     0
102
RTVSPost2010PropOp31
 70
     1
102
RTVSPost2010Prop32
280
     0
102
RTVSPost2010PropOp32
 70
     1
102
RTVSPost2010Prop33
280
     0
102
RTVSPost2010PropOp33
 70
     1
102
RTVSPost2010Prop34
280
     0
102
RTVSPost2010PropOp34
 70
     1
102
RTVSPost2010Prop35
280
     0
102
RTVSPost2010PropOp35
 70
     1
102
RTVSPost2010Prop36
280
     0
102
RTVSPost2010PropOp36
 70
     1
102
RTVSPost2010Prop37
 90
       50
102
RTVSPost2010PropOp37
 70
     1
102
RTVSPost2010Prop38
140
0.0
102
RTVSPost2010PropOp38
 70
     1
102
RTVSPost2010Prop39
140
1.0
102
RTVSPost2010PropOp39
 70
     1
102
RTVSPost2010Prop40
 90
        0
102
RTVSPost2010PropOp40
 70
     1
102
RTVSPost2010Prop41ColorIndex
 90
       18
102
RTVSPost2010Prop41ColorRGB
 90
        0
102
RTVSPost2010PropOp41
 70
     1
102
RTVSPost2010Prop42
 90
       50
102
RTVSPost2010PropOp42
 70
     1
102
RTVSPost2010Prop43
 90
        3
102
RTVSPost2010PropOp43
 70
     1
102
RTVSPost2010Prop44ColorIndex
 90
        5
102
RTVSPost2010Prop44ColorRGB
 90
      255
102
RTVSPost2010PropOp44
 70
     1
102
RTVSPost2010Prop45
280
     0
102
RTVSPost2010PropOp45
 70
     1
102
RTVSPost2010Prop46
 90
       50
102
RTVSPost2010PropOp46
 70
     1
102
RTVSPost2010Prop47
 90
       50
102
RTVSPost2010PropOp47
 70
     1
102
RTVSPost2010Prop48
 90
       50
102
RTVSPost2010PropOp48
 70
     1
102
RTVSPost2010Prop49
280
     0
102
RTVSPost2010PropOp49
 70
     1
102
RTVSPost2010Prop50
 90
       50
102
RTVSPost2010PropOp50
 70
     1
102
RTVSPost2010Prop51ColorIndex
 90
      256
102
RTVSPost2010Prop51ColorRGB
 90
-16777216
102
RTVSPost2010PropOp51
 70
     0
102
RTVSPost2010Prop52
140
1.0
102
RTVSPost2010PropOp52
 70
     0
102
RTVSPost2010Prop53
 90
        2
102
RTVSPost2010PropOp53
 70
     1
102
RTVSPost2010Prop54
  1
strokes_ogs.tif
102
RTVSPost2010PropOp54
 70
     1
102
RTVSPost2010Prop55
280
     0
102
RTVSPost2010PropOp55
 70
     1
102
RTVSPost2010Prop56
140
1.0
102
RTVSPost2010PropOp56
 70
     1
102
RTVSPost2010Prop57
140
1.0
102
RTVSPost2010PropOp57
 70
     1
102
RTVSPropertyOp33
 70
     1
102
RTVSPropertyOp34
 70
     1
102
RTVSPropertyOp35
 70
     1
102
RTVSPropertyOp36
 70
     1
102
RTVSPropertyOp37
 70
     1
102
RTVSPropertyOp38
 70
     1
102
RTVSPropertyOp39
 70
     1
102
RTVSPropertyOp40
 70
     1
102
RTVSPropertyOp41
 70
     1
102
RTVSPropertyOp42
 70
     1
102
RTVSPropertyOp43
 70
     1
102
RTVSPropertyOp44
 70
     1
102
RTVSPropertyOp45
 70
     1
102
RTVSPropertyOp46
 70
     1
102
RTVSPropertyOp47
 70
     1
102
RTVSPropertyOp48
 70
     1
102
RTVSPropertyOp49
 70
     1
102
RTVSPropertyOp50
 70
     1
102
RTVSPropertyOp51
 70
     0
102
RTVSPropertyOp52
 70
     0
102
RTVSPropertyOp53
 70
     1
102
RTVSPropertyOp54
 70
     1
102
RTVSPropertyOp55
 70
     1
102
RTVSPropertyOp56
 70
     1
102
RTVSPropertyOp57
 70
     1
102
RTVSPropertyOp58
 70
     1
102
RTVSPropertyOp59
 70
     1
102
RTVSPropertyOp60
 70
     1
102
RTVSPropertyOp61
 70
     1
102
RTVSPropertyOp62
 70
     1
102
RTVSPropertyOp0
 70
     1
102
RTVSPropertyOp1
 70
     1
102
RTVSPropertyOp2
 70
     1
102
RTVSPropertyOp3
 70
     1
102
RTVSPropertyOp4
 70
     1
102
RTVSPropertyOp5
 70
     1
102
RTVSPropertyOp6
 70
     1
102
RTVSPropertyOp7
 70
     1
102
RTVSPropertyOp8
 70
     1
102
RTVSPropertyOp9
 70
     1
102
RTVSPropertyOp10
 70
     1
102
RTVSPropertyOp11
 70
     1
102
RTVSPropertyOp12
 70
     1
102
RTVSPropertyOp13
 70
     1
102
RTVSPropertyOp14
 70
     1
102
RTVSPropertyOp15
 70
     1
102
RTVSPropertyOp16
 70
     1
102
RTVSPropertyOp17
 70
     1
102
RTVSPropertyOp18
 70
     1
102
RTVSPropertyOp19
 70
     1
102
RTVSPropertyOp20
 70
     1
102
RTVSPropertyOp21
 70
     1
102
RTVSPropertyOp22
 70
     1
102
RTVSPropertyOp23
 70
     1
102
RTVSPropertyOp24
 70
     1
102
RTVSPropertyOp25
 70
     1
102
RTVSPropertyOp26
 70
     1
102
RTVSPropertyOp27
 70
     1
102
RTVSPropertyOp28
 70
     1
102
RTVSPropertyOp29
 70
     1
102
RTVSPropertyOp30
 70
     1
102
RTVSPropertyOp31
 70
     1
102
RTVSPropertyOp32
 70
     1
  0
XRECORD
  5
2479
102
{ACAD_REACTORS
330
2478
102
}
330
2478
100
AcDbXrecord
280
     1
102
RTVSPost2010Prop28
280
     0
102
RTVSPost2010PropOp28
 70
     1
102
RTVSPost2010Prop29
280
     1
102
RTVSPost2010PropOp29
 70
     1
102
RTVSPost2010Prop30
280
     1
102
RTVSPost2010PropOp30
 70
     1
102
RTVSPost2010Prop31
280
     0
102
RTVSPost2010PropOp31
 70
     1
102
RTVSPost2010Prop32
280
     0
102
RTVSPost2010PropOp32
 70
     1
102
RTVSPost2010Prop33
280
     0
102
RTVSPost2010PropOp33
 70
     1
102
RTVSPost2010Prop34
280
     0
102
RTVSPost2010PropOp34
 70
     1
102
RTVSPost2010Prop35
280
     0
102
RTVSPost2010PropOp35
 70
     1
102
RTVSPost2010Prop36
280
     0
102
RTVSPost2010PropOp36
 70
     1
102
RTVSPost2010Prop37
 90
       50
102
RTVSPost2010PropOp37
 70
     1
102
RTVSPost2010Prop38
140
0.0
102
RTVSPost2010PropOp38
 70
     1
102
RTVSPost2010Prop39
140
1.0
102
RTVSPost2010PropOp39
 70
     1
102
RTVSPost2010Prop40
 90
        0
102
RTVSPost2010PropOp40
 70
     1
102
RTVSPost2010Prop41ColorIndex
 90
       18
102
RTVSPost2010Prop41ColorRGB
 90
        0
102
RTVSPost2010PropOp41
 70
     1
102
RTVSPost2010Prop42
 90
       50
102
RTVSPost2010PropOp42
 70
     1
102
RTVSPost2010Prop43
 90
        3
102
RTVSPost2010PropOp43
 70
     1
102
RTVSPost2010Prop44ColorIndex
 90
        5
102
RTVSPost2010Prop44ColorRGB
 90
      255
102
RTVSPost2010PropOp44
 70
     1
102
RTVSPost2010Prop45
280
     0
102
RTVSPost2010PropOp45
 70
     1
102
RTVSPost2010Prop46
 90
       50
102
RTVSPost2010PropOp46
 70
     1
102
RTVSPost2010Prop47
 90
       50
102
RTVSPost2010PropOp47
 70
     1
102
RTVSPost2010Prop48
 90
       50
102
RTVSPost2010PropOp48
 70
     1
102
RTVSPost2010Prop49
280
     0
102
RTVSPost2010PropOp49
 70
     1
102
RTVSPost2010Prop50
 90
       50
102
RTVSPost2010PropOp50
 70
     1
102
RTVSPost2010Prop51ColorIndex
 90
      256
102
RTVSPost2010Prop51ColorRGB
 90
-16777216
102
RTVSPost2010PropOp51
 70
     0
102
RTVSPost2010Prop52
140
1.0
102
RTVSPost2010PropOp52
 70
     0
102
RTVSPost2010Prop53
 90
        2
102
RTVSPost2010PropOp53
 70
     1
102
RTVSPost2010Prop54
  1
strokes_ogs.tif
102
RTVSPost2010PropOp54
 70
     1
102
RTVSPost2010Prop55
280
     0
102
RTVSPost2010PropOp55
 70
     1
102
RTVSPost2010Prop56
140
1.0
102
RTVSPost2010PropOp56
 70
     1
102
RTVSPost2010Prop57
140
1.0
102
RTVSPost2010PropOp57
 70
     1
102
RTVSPropertyOp33
 70
     1
102
RTVSPropertyOp34
 70
     1
102
RTVSPropertyOp35
 70
     1
102
RTVSPropertyOp36
 70
     1
102
RTVSPropertyOp37
 70
     1
102
RTVSPropertyOp38
 70
     1
102
RTVSPropertyOp39
 70
     1
102
RTVSPropertyOp40
 70
     1
102
RTVSPropertyOp41
 70
     1
102
RTVSPropertyOp42
 70
     1
102
RTVSPropertyOp43
 70
     1
102
RTVSPropertyOp44
 70
     1
102
RTVSPropertyOp45
 70
     1
102
RTVSPropertyOp46
 70
     1
102
RTVSPropertyOp47
 70
     1
102
RTVSPropertyOp48
 70
     1
102
RTVSPropertyOp49
 70
     1
102
RTVSPropertyOp50
 70
     1
102
RTVSPropertyOp51
 70
     0
102
RTVSPropertyOp52
 70
     0
102
RTVSPropertyOp53
 70
     1
102
RTVSPropertyOp54
 70
     1
102
RTVSPropertyOp55
 70
     1
102
RTVSPropertyOp56
 70
     1
102
RTVSPropertyOp57
 70
     1
102
RTVSPropertyOp58
 70
     1
102
RTVSPropertyOp59
 70
     1
102
RTVSPropertyOp60
 70
     1
102
RTVSPropertyOp61
 70
     1
102
RTVSPropertyOp62
 70
     1
102
RTVSPropertyOp0
 70
     1
102
RTVSPropertyOp1
 70
     1
102
RTVSPropertyOp2
 70
     1
102
RTVSPropertyOp3
 70
     1
102
RTVSPropertyOp4
 70
     1
102
RTVSPropertyOp5
 70
     1
102
RTVSPropertyOp6
 70
     1
102
RTVSPropertyOp7
 70
     1
102
RTVSPropertyOp8
 70
     1
102
RTVSPropertyOp9
 70
     1
102
RTVSPropertyOp10
 70
     1
102
RTVSPropertyOp11
 70
     1
102
RTVSPropertyOp12
 70
     1
102
RTVSPropertyOp13
 70
     1
102
RTVSPropertyOp14
 70
     1
102
RTVSPropertyOp15
 70
     1
102
RTVSPropertyOp16
 70
     1
102
RTVSPropertyOp17
 70
     1
102
RTVSPropertyOp18
 70
     1
102
RTVSPropertyOp19
 70
     1
102
RTVSPropertyOp20
 70
     1
102
RTVSPropertyOp21
 70
     1
102
RTVSPropertyOp22
 70
     1
102
RTVSPropertyOp23
 70
     1
102
RTVSPropertyOp24
 70
     1
102
RTVSPropertyOp25
 70
     1
102
RTVSPropertyOp26
 70
     1
102
RTVSPropertyOp27
 70
     1
102
RTVSPropertyOp28
 70
     1
102
RTVSPropertyOp29
 70
     1
102
RTVSPropertyOp30
 70
     1
102
RTVSPropertyOp31
 70
     1
102
RTVSPropertyOp32
 70
     1
  0
XRECORD
  5
2468
102
{ACAD_REACTORS
330
2467
102
}
330
2467
100
AcDbXrecord
280
     1
102
RTVSPost2010Prop28
280
     0
102
RTVSPost2010PropOp28
 70
     1
102
RTVSPost2010Prop29
280
     1
102
RTVSPost2010PropOp29
 70
     1
102
RTVSPost2010Prop30
280
     1
102
RTVSPost2010PropOp30
 70
     1
102
RTVSPost2010Prop31
280
     0
102
RTVSPost2010PropOp31
 70
     1
102
RTVSPost2010Prop32
280
     0
102
RTVSPost2010PropOp32
 70
     1
102
RTVSPost2010Prop33
280
     0
102
RTVSPost2010PropOp33
 70
     1
102
RTVSPost2010Prop34
280
     0
102
RTVSPost2010PropOp34
 70
     1
102
RTVSPost2010Prop35
280
     0
102
RTVSPost2010PropOp35
 70
     1
102
RTVSPost2010Prop36
280
     0
102
RTVSPost2010PropOp36
 70
     1
102
RTVSPost2010Prop37
 90
       50
102
RTVSPost2010PropOp37
 70
     1
102
RTVSPost2010Prop38
140
0.0
102
RTVSPost2010PropOp38
 70
     1
102
RTVSPost2010Prop39
140
1.0
102
RTVSPost2010PropOp39
 70
     1
102
RTVSPost2010Prop40
 90
        0
102
RTVSPost2010PropOp40
 70
     1
102
RTVSPost2010Prop41ColorIndex
 90
       18
102
RTVSPost2010Prop41ColorRGB
 90
        0
102
RTVSPost2010PropOp41
 70
     1
102
RTVSPost2010Prop42
 90
       50
102
RTVSPost2010PropOp42
 70
     1
102
RTVSPost2010Prop43
 90
        3
102
RTVSPost2010PropOp43
 70
     1
102
RTVSPost2010Prop44ColorIndex
 90
        5
102
RTVSPost2010Prop44ColorRGB
 90
      255
102
RTVSPost2010PropOp44
 70
     1
102
RTVSPost2010Prop45
280
     0
102
RTVSPost2010PropOp45
 70
     1
102
RTVSPost2010Prop46
 90
       50
102
RTVSPost2010PropOp46
 70
     1
102
RTVSPost2010Prop47
 90
       50
102
RTVSPost2010PropOp47
 70
     1
102
RTVSPost2010Prop48
 90
       50
102
RTVSPost2010PropOp48
 70
     1
102
RTVSPost2010Prop49
280
     0
102
RTVSPost2010PropOp49
 70
     1
102
RTVSPost2010Prop50
 90
       50
102
RTVSPost2010PropOp50
 70
     1
102
RTVSPost2010Prop51ColorIndex
 90
      256
102
RTVSPost2010Prop51ColorRGB
 90
-16777216
102
RTVSPost2010PropOp51
 70
     0
102
RTVSPost2010Prop52
140
1.0
102
RTVSPost2010PropOp52
 70
     0
102
RTVSPost2010Prop53
 90
        2
102
RTVSPost2010PropOp53
 70
     1
102
RTVSPost2010Prop54
  1
strokes_ogs.tif
102
RTVSPost2010PropOp54
 70
     1
102
RTVSPost2010Prop55
280
     0
102
RTVSPost2010PropOp55
 70
     1
102
RTVSPost2010Prop56
140
1.0
102
RTVSPost2010PropOp56
 70
     1
102
RTVSPost2010Prop57
140
1.0
102
RTVSPost2010PropOp57
 70
     1
102
RTVSPropertyOp33
 70
     1
102
RTVSPropertyOp34
 70
     1
102
RTVSPropertyOp35
 70
     1
102
RTVSPropertyOp36
 70
     1
102
RTVSPropertyOp37
 70
     1
102
RTVSPropertyOp38
 70
     1
102
RTVSPropertyOp39
 70
     1
102
RTVSPropertyOp40
 70
     1
102
RTVSPropertyOp41
 70
     1
102
RTVSPropertyOp42
 70
     1
102
RTVSPropertyOp43
 70
     1
102
RTVSPropertyOp44
 70
     1
102
RTVSPropertyOp45
 70
     1
102
RTVSPropertyOp46
 70
     1
102
RTVSPropertyOp47
 70
     1
102
RTVSPropertyOp48
 70
     1
102
RTVSPropertyOp49
 70
     1
102
RTVSPropertyOp50
 70
     1
102
RTVSPropertyOp51
 70
     0
102
RTVSPropertyOp52
 70
     0
102
RTVSPropertyOp53
 70
     1
102
RTVSPropertyOp54
 70
     1
102
RTVSPropertyOp55
 70
     1
102
RTVSPropertyOp56
 70
     1
102
RTVSPropertyOp57
 70
     1
102
RTVSPropertyOp58
 70
     1
102
RTVSPropertyOp59
 70
     1
102
RTVSPropertyOp60
 70
     1
102
RTVSPropertyOp61
 70
     1
102
RTVSPropertyOp62
 70
     1
102
RTVSPropertyOp0
 70
     1
102
RTVSPropertyOp1
 70
     1
102
RTVSPropertyOp2
 70
     1
102
RTVSPropertyOp3
 70
     1
102
RTVSPropertyOp4
 70
     1
102
RTVSPropertyOp5
 70
     1
102
RTVSPropertyOp6
 70
     1
102
RTVSPropertyOp7
 70
     1
102
RTVSPropertyOp8
 70
     1
102
RTVSPropertyOp9
 70
     1
102
RTVSPropertyOp10
 70
     1
102
RTVSPropertyOp11
 70
     1
102
RTVSPropertyOp12
 70
     1
102
RTVSPropertyOp13
 70
     1
102
RTVSPropertyOp14
 70
     1
102
RTVSPropertyOp15
 70
     1
102
RTVSPropertyOp16
 70
     1
102
RTVSPropertyOp17
 70
     1
102
RTVSPropertyOp18
 70
     1
102
RTVSPropertyOp19
 70
     1
102
RTVSPropertyOp20
 70
     1
102
RTVSPropertyOp21
 70
     1
102
RTVSPropertyOp22
 70
     1
102
RTVSPropertyOp23
 70
     1
102
RTVSPropertyOp24
 70
     1
102
RTVSPropertyOp25
 70
     1
102
RTVSPropertyOp26
 70
     1
102
RTVSPropertyOp27
 70
     1
102
RTVSPropertyOp28
 70
     1
102
RTVSPropertyOp29
 70
     1
102
RTVSPropertyOp30
 70
     1
102
RTVSPropertyOp31
 70
     1
102
RTVSPropertyOp32
 70
     1
  0
XRECORD
  5
245C
102
{ACAD_REACTORS
330
245B
102
}
330
245B
100
AcDbXrecord
280
     1
102
RTVSPost2010Prop28
280
     0
102
RTVSPost2010PropOp28
 70
     1
102
RTVSPost2010Prop29
280
     1
102
RTVSPost2010PropOp29
 70
     1
102
RTVSPost2010Prop30
280
     1
102
RTVSPost2010PropOp30
 70
     1
102
RTVSPost2010Prop31
280
     0
102
RTVSPost2010PropOp31
 70
     1
102
RTVSPost2010Prop32
280
     0
102
RTVSPost2010PropOp32
 70
     1
102
RTVSPost2010Prop33
280
     0
102
RTVSPost2010PropOp33
 70
     1
102
RTVSPost2010Prop34
280
     0
102
RTVSPost2010PropOp34
 70
     1
102
RTVSPost2010Prop35
280
     0
102
RTVSPost2010PropOp35
 70
     1
102
RTVSPost2010Prop36
280
     0
102
RTVSPost2010PropOp36
 70
     1
102
RTVSPost2010Prop37
 90
       50
102
RTVSPost2010PropOp37
 70
     1
102
RTVSPost2010Prop38
140
0.0
102
RTVSPost2010PropOp38
 70
     1
102
RTVSPost2010Prop39
140
1.0
102
RTVSPost2010PropOp39
 70
     1
102
RTVSPost2010Prop40
 90
        0
102
RTVSPost2010PropOp40
 70
     1
102
RTVSPost2010Prop41ColorIndex
 90
       18
102
RTVSPost2010Prop41ColorRGB
 90
        0
102
RTVSPost2010PropOp41
 70
     1
102
RTVSPost2010Prop42
 90
       50
102
RTVSPost2010PropOp42
 70
     1
102
RTVSPost2010Prop43
 90
        3
102
RTVSPost2010PropOp43
 70
     1
102
RTVSPost2010Prop44ColorIndex
 90
        5
102
RTVSPost2010Prop44ColorRGB
 90
      255
102
RTVSPost2010PropOp44
 70
     1
102
RTVSPost2010Prop45
280
     0
102
RTVSPost2010PropOp45
 70
     1
102
RTVSPost2010Prop46
 90
       50
102
RTVSPost2010PropOp46
 70
     1
102
RTVSPost2010Prop47
 90
       50
102
RTVSPost2010PropOp47
 70
     1
102
RTVSPost2010Prop48
 90
       50
102
RTVSPost2010PropOp48
 70
     1
102
RTVSPost2010Prop49
280
     0
102
RTVSPost2010PropOp49
 70
     1
102
RTVSPost2010Prop50
 90
       50
102
RTVSPost2010PropOp50
 70
     1
102
RTVSPost2010Prop51ColorIndex
 90
      256
102
RTVSPost2010Prop51ColorRGB
 90
-16777216
102
RTVSPost2010PropOp51
 70
     0
102
RTVSPost2010Prop52
140
1.0
102
RTVSPost2010PropOp52
 70
     0
102
RTVSPost2010Prop53
 90
        2
102
RTVSPost2010PropOp53
 70
     1
102
RTVSPost2010Prop54
  1
strokes_ogs.tif
102
RTVSPost2010PropOp54
 70
     1
102
RTVSPost2010Prop55
280
     0
102
RTVSPost2010PropOp55
 70
     1
102
RTVSPost2010Prop56
140
1.0
102
RTVSPost2010PropOp56
 70
     1
102
RTVSPost2010Prop57
140
1.0
102
RTVSPost2010PropOp57
 70
     1
102
RTVSPropertyOp33
 70
     1
102
RTVSPropertyOp34
 70
     1
102
RTVSPropertyOp35
 70
     1
102
RTVSPropertyOp36
 70
     1
102
RTVSPropertyOp37
 70
     1
102
RTVSPropertyOp38
 70
     1
102
RTVSPropertyOp39
 70
     1
102
RTVSPropertyOp40
 70
     1
102
RTVSPropertyOp41
 70
     1
102
RTVSPropertyOp42
 70
     1
102
RTVSPropertyOp43
 70
     1
102
RTVSPropertyOp44
 70
     1
102
RTVSPropertyOp45
 70
     1
102
RTVSPropertyOp46
 70
     1
102
RTVSPropertyOp47
 70
     1
102
RTVSPropertyOp48
 70
     1
102
RTVSPropertyOp49
 70
     1
102
RTVSPropertyOp50
 70
     1
102
RTVSPropertyOp51
 70
     0
102
RTVSPropertyOp52
 70
     0
102
RTVSPropertyOp53
 70
     1
102
RTVSPropertyOp54
 70
     1
102
RTVSPropertyOp55
 70
     1
102
RTVSPropertyOp56
 70
     1
102
RTVSPropertyOp57
 70
     1
102
RTVSPropertyOp58
 70
     1
102
RTVSPropertyOp59
 70
     1
102
RTVSPropertyOp60
 70
     1
102
RTVSPropertyOp61
 70
     1
102
RTVSPropertyOp62
 70
     1
102
RTVSPropertyOp0
 70
     1
102
RTVSPropertyOp1
 70
     1
102
RTVSPropertyOp2
 70
     1
102
RTVSPropertyOp3
 70
     1
102
RTVSPropertyOp4
 70
     1
102
RTVSPropertyOp5
 70
     1
102
RTVSPropertyOp6
 70
     1
102
RTVSPropertyOp7
 70
     1
102
RTVSPropertyOp8
 70
     1
102
RTVSPropertyOp9
 70
     1
102
RTVSPropertyOp10
 70
     1
102
RTVSPropertyOp11
 70
     1
102
RTVSPropertyOp12
 70
     1
102
RTVSPropertyOp13
 70
     1
102
RTVSPropertyOp14
 70
     1
102
RTVSPropertyOp15
 70
     1
102
RTVSPropertyOp16
 70
     1
102
RTVSPropertyOp17
 70
     1
102
RTVSPropertyOp18
 70
     1
102
RTVSPropertyOp19
 70
     1
102
RTVSPropertyOp20
 70
     1
102
RTVSPropertyOp21
 70
     1
102
RTVSPropertyOp22
 70
     1
102
RTVSPropertyOp23
 70
     1
102
RTVSPropertyOp24
 70
     1
102
RTVSPropertyOp25
 70
     1
102
RTVSPropertyOp26
 70
     1
102
RTVSPropertyOp27
 70
     1
102
RTVSPropertyOp28
 70
     1
102
RTVSPropertyOp29
 70
     1
102
RTVSPropertyOp30
 70
     1
102
RTVSPropertyOp31
 70
     1
102
RTVSPropertyOp32
 70
     1
  0
XRECORD
  5
247B
102
{ACAD_REACTORS
330
247A
102
}
330
247A
100
AcDbXrecord
280
     1
102
RTVSPost2010Prop28
280
     0
102
RTVSPost2010PropOp28
 70
     1
102
RTVSPost2010Prop29
280
     1
102
RTVSPost2010PropOp29
 70
     1
102
RTVSPost2010Prop30
280
     1
102
RTVSPost2010PropOp30
 70
     1
102
RTVSPost2010Prop31
280
     0
102
RTVSPost2010PropOp31
 70
     1
102
RTVSPost2010Prop32
280
     0
102
RTVSPost2010PropOp32
 70
     1
102
RTVSPost2010Prop33
280
     0
102
RTVSPost2010PropOp33
 70
     1
102
RTVSPost2010Prop34
280
     0
102
RTVSPost2010PropOp34
 70
     1
102
RTVSPost2010Prop35
280
     0
102
RTVSPost2010PropOp35
 70
     1
102
RTVSPost2010Prop36
280
     0
102
RTVSPost2010PropOp36
 70
     1
102
RTVSPost2010Prop37
 90
       50
102
RTVSPost2010PropOp37
 70
     1
102
RTVSPost2010Prop38
140
0.0
102
RTVSPost2010PropOp38
 70
     1
102
RTVSPost2010Prop39
140
1.0
102
RTVSPost2010PropOp39
 70
     1
102
RTVSPost2010Prop40
 90
        0
102
RTVSPost2010PropOp40
 70
     1
102
RTVSPost2010Prop41ColorIndex
 90
       18
102
RTVSPost2010Prop41ColorRGB
 90
        0
102
RTVSPost2010PropOp41
 70
     1
102
RTVSPost2010Prop42
 90
       50
102
RTVSPost2010PropOp42
 70
     1
102
RTVSPost2010Prop43
 90
        3
102
RTVSPost2010PropOp43
 70
     1
102
RTVSPost2010Prop44ColorIndex
 90
        5
102
RTVSPost2010Prop44ColorRGB
 90
      255
102
RTVSPost2010PropOp44
 70
     1
102
RTVSPost2010Prop45
280
     0
102
RTVSPost2010PropOp45
 70
     1
102
RTVSPost2010Prop46
 90
       50
102
RTVSPost2010PropOp46
 70
     1
102
RTVSPost2010Prop47
 90
       50
102
RTVSPost2010PropOp47
 70
     1
102
RTVSPost2010Prop48
 90
       50
102
RTVSPost2010PropOp48
 70
     1
102
RTVSPost2010Prop49
280
     0
102
RTVSPost2010PropOp49
 70
     1
102
RTVSPost2010Prop50
 90
       50
102
RTVSPost2010PropOp50
 70
     1
102
RTVSPost2010Prop51ColorIndex
 90
      256
102
RTVSPost2010Prop51ColorRGB
 90
-16777216
102
RTVSPost2010PropOp51
 70
     0
102
RTVSPost2010Prop52
140
1.0
102
RTVSPost2010PropOp52
 70
     0
102
RTVSPost2010Prop53
 90
        2
102
RTVSPost2010PropOp53
 70
     1
102
RTVSPost2010Prop54
  1
strokes_ogs.tif
102
RTVSPost2010PropOp54
 70
     1
102
RTVSPost2010Prop55
280
     0
102
RTVSPost2010PropOp55
 70
     1
102
RTVSPost2010Prop56
140
1.0
102
RTVSPost2010PropOp56
 70
     1
102
RTVSPost2010Prop57
140
1.0
102
RTVSPost2010PropOp57
 70
     1
102
RTVSPropertyOp33
 70
     1
102
RTVSPropertyOp34
 70
     1
102
RTVSPropertyOp35
 70
     1
102
RTVSPropertyOp36
 70
     1
102
RTVSPropertyOp37
 70
     1
102
RTVSPropertyOp38
 70
     1
102
RTVSPropertyOp39
 70
     1
102
RTVSPropertyOp40
 70
     1
102
RTVSPropertyOp41
 70
     1
102
RTVSPropertyOp42
 70
     1
102
RTVSPropertyOp43
 70
     1
102
RTVSPropertyOp44
 70
     1
102
RTVSPropertyOp45
 70
     1
102
RTVSPropertyOp46
 70
     1
102
RTVSPropertyOp47
 70
     1
102
RTVSPropertyOp48
 70
     1
102
RTVSPropertyOp49
 70
     1
102
RTVSPropertyOp50
 70
     1
102
RTVSPropertyOp51
 70
     0
102
RTVSPropertyOp52
 70
     0
102
RTVSPropertyOp53
 70
     1
102
RTVSPropertyOp54
 70
     1
102
RTVSPropertyOp55
 70
     1
102
RTVSPropertyOp56
 70
     1
102
RTVSPropertyOp57
 70
     1
102
RTVSPropertyOp58
 70
     1
102
RTVSPropertyOp59
 70
     1
102
RTVSPropertyOp60
 70
     1
102
RTVSPropertyOp61
 70
     1
102
RTVSPropertyOp62
 70
     1
102
RTVSPropertyOp0
 70
     1
102
RTVSPropertyOp1
 70
     1
102
RTVSPropertyOp2
 70
     1
102
RTVSPropertyOp3
 70
     1
102
RTVSPropertyOp4
 70
     1
102
RTVSPropertyOp5
 70
     1
102
RTVSPropertyOp6
 70
     1
102
RTVSPropertyOp7
 70
     1
102
RTVSPropertyOp8
 70
     1
102
RTVSPropertyOp9
 70
     1
102
RTVSPropertyOp10
 70
     1
102
RTVSPropertyOp11
 70
     1
102
RTVSPropertyOp12
 70
     1
102
RTVSPropertyOp13
 70
     1
102
RTVSPropertyOp14
 70
     1
102
RTVSPropertyOp15
 70
     1
102
RTVSPropertyOp16
 70
     1
102
RTVSPropertyOp17
 70
     1
102
RTVSPropertyOp18
 70
     1
102
RTVSPropertyOp19
 70
     1
102
RTVSPropertyOp20
 70
     1
102
RTVSPropertyOp21
 70
     1
102
RTVSPropertyOp22
 70
     1
102
RTVSPropertyOp23
 70
     1
102
RTVSPropertyOp24
 70
     1
102
RTVSPropertyOp25
 70
     1
102
RTVSPropertyOp26
 70
     1
102
RTVSPropertyOp27
 70
     1
102
RTVSPropertyOp28
 70
     1
102
RTVSPropertyOp29
 70
     1
102
RTVSPropertyOp30
 70
     1
102
RTVSPropertyOp31
 70
     1
102
RTVSPropertyOp32
 70
     1
  0
ENDSEC
  0
EOF
